<?xml version="1.0" standalone="no"?>
<!DOCTYPE svg PUBLIC "-//W3C//DTD SVG 1.1//EN" "http://www.w3.org/Graphics/SVG/1.1/DTD/svg11.dtd" >
<svg xmlns="http://www.w3.org/2000/svg" xmlns:xlink="http://www.w3.org/1999/xlink" version="1.1">
<metadata>
Created by FontForge 20170924 at Sat May 31 01:42:09 2014
 By www-data
Font data copyright Google 2014
</metadata>
<defs>
<font id="RobotoCondensed-Regular" horiz-adv-x="1028" >
  <font-face 
    font-family="Roboto Condensed"
    font-weight="400"
    font-stretch="normal"
    units-per-em="2048"
    panose-1="0 0 0 0 0 0 0 0 0 0"
    ascent="1536"
    descent="-512"
    x-height="1082"
    cap-height="1456"
    bbox="-1395 -555 2043 2163"
    underline-thickness="100"
    underline-position="-200"
    unicode-range="U+0002-FFFD"
  />
<missing-glyph horiz-adv-x="469" 
 />
    <glyph glyph-name="fi" unicode="fi" horiz-adv-x="1003" 
d="M181 0v939h-141v143h141v94q0 92 24 163t68.5 119.5t108.5 73.5t144 25q63 0 120 -17.5t120 -43.5l-30 -156q-35 18 -87 34t-109 16q-100 0 -140.5 -53t-40.5 -161v-94h175v-143h-175v-939h-178zM852 0h-178v1082h178v-1082z" />
    <glyph glyph-name=".notdef" horiz-adv-x="469" 
 />
    <glyph glyph-name="NULL" horiz-adv-x="0" 
 />
    <glyph glyph-name="NULL" horiz-adv-x="0" 
 />
    <glyph glyph-name="nonmarkingreturn" unicode="&#xd;" horiz-adv-x="469" 
 />
    <glyph glyph-name="space" unicode=" " horiz-adv-x="469" 
 />
    <glyph glyph-name="quotedbl" unicode="&#x22;" horiz-adv-x="655" 
d="M277 1400l-30 -358h-111l1 348v146h140v-136zM547 1400l-30 -358h-111l1 356v138h140v-136z" />
    <glyph glyph-name="numbersign" unicode="#" horiz-adv-x="1113" 
d="M615 410h-206l-68 -410h-134l68 410h-195v137h218l59 354h-214v139h237l69 416h134l-69 -416h205l69 416h136l-69 -416h162v-139h-185l-59 -354h181v-137h-204l-68 -410h-135zM432 547h205l59 354h-205z" />
    <glyph glyph-name="dollar" unicode="$" horiz-adv-x="1011" 
d="M724 375q0 45 -12 83t-38.5 71t-69 61t-102.5 54q-80 29 -143.5 67.5t-108 90.5t-68 120t-23.5 157q0 82 20.5 150t59 118t93.5 82t123 43v220h141v-221q140 -25 216.5 -142.5t76.5 -320.5h-175q0 67 -12.5 123t-36.5 97t-60 64t-82 23q-48 0 -83 -17t-58.5 -47.5
t-35 -73.5t-11.5 -95q0 -48 11.5 -86.5t38.5 -70.5t70.5 -60.5t107.5 -55.5q82 -31 145 -69.5t106 -89.5t65 -118t22 -155q0 -86 -23 -154.5t-65 -118.5t-102 -80t-135 -40v-192h-139v192q-63 9 -122 37t-104.5 81t-72.5 133.5t-27 193.5h176q0 -85 19 -141t50 -89t69 -46
t76 -13q53 0 94.5 16.5t70 47t43.5 74t15 97.5z" />
    <glyph glyph-name="percent" unicode="%" horiz-adv-x="1296" 
d="M107 1176q0 62 17.5 116.5t50 95.5t79.5 65t107 24t107.5 -24t80.5 -65t50 -95.5t17 -116.5v-77q0 -61 -17 -115.5t-49.5 -95t-79.5 -64.5t-107 -24t-107.5 24t-80.5 64.5t-50.5 95t-17.5 115.5v77zM236 1099q0 -35 7.5 -67t23.5 -57t40 -40t56 -15q31 0 54.5 15t39 39.5
t23 57t7.5 67.5v77q0 35 -7.5 67.5t-23.5 57.5t-39.5 40t-55.5 15t-55.5 -15t-39 -40t-23 -57.5t-7.5 -67.5v-77zM695 357q0 61 17.5 116t50 95.5t79.5 64.5t107 24t107.5 -24t80.5 -64.5t50.5 -95.5t17.5 -116v-78q0 -62 -17.5 -116.5t-50.5 -95t-80 -64.5t-106 -24
q-60 0 -107.5 24t-80.5 64.5t-50.5 95t-17.5 116.5v78zM824 279q0 -35 7.5 -67.5t23.5 -57.5t40 -40t56 -15q31 0 54.5 15t39 40t23 57.5t7.5 67.5v78q0 35 -7.5 67.5t-23.5 57t-39.5 39.5t-55.5 15t-55 -15t-39 -39.5t-23.5 -57t-7.5 -67.5v-78zM399 110l-97 66l597 1138
l98 -66z" />
    <glyph glyph-name="ampersand" unicode="&#x26;" horiz-adv-x="1113" 
d="M103 391q0 64 17.5 117.5t49 100t75.5 89.5t97 87q-32 45 -58.5 87t-45.5 83t-29 82t-10 85q0 85 22.5 151t64 111t99.5 68.5t129 23.5q70 0 126 -25t95 -67t60 -98t21 -118q0 -53 -11.5 -96.5t-32.5 -82t-52 -72t-70 -66.5l-91 -78l256 -369q23 58 35 125t12 143h158
q0 -123 -24.5 -227t-77.5 -189l178 -256h-212l-74 107q-31 -32 -68 -56t-77 -40t-81 -23.5t-80 -7.5q-93 0 -167.5 30.5t-126 85t-79.5 130t-28 165.5zM504 131q57 0 112 28t103 82l-289 421l-30 -25q-42 -40 -66 -77.5t-36.5 -69.5t-15.5 -57.5t-3 -41.5q0 -53 14 -100.5
t42 -83t70 -56t99 -20.5zM375 1128q0 -54 27 -111t70 -121l77 66q26 21 46 42t33 45t19.5 52.5t6.5 66.5q0 30 -9.5 58t-27.5 49.5t-44 35t-60 13.5t-60 -15.5t-43 -42.5t-26 -62.5t-9 -75.5z" />
    <glyph glyph-name="quotesingle" unicode="'" horiz-adv-x="357" 
d="M253 1425l-21 -368h-129l1 352v127h149v-111z" />
    <glyph glyph-name="parenleft" unicode="(" horiz-adv-x="643" 
d="M129 591q0 145 20.5 272.5t55 235.5t79 197t91.5 157t93 116t85 74l35 -122q-47 -45 -96.5 -124t-91 -194.5t-68 -267.5t-26.5 -342v-14q0 -190 26.5 -342t68 -268t91 -197t96.5 -129l-35 -113q-39 26 -85 74t-93 116.5t-91.5 156.5t-79 196t-55 235t-20.5 273v10z" />
    <glyph glyph-name="parenright" unicode=")" horiz-adv-x="652" 
d="M513 581q0 -146 -20.5 -273t-55 -235t-78.5 -196t-91 -156.5t-93.5 -116.5t-85.5 -74l-35 113q47 45 97 125.5t91 197.5t67.5 270t26.5 343v14q0 190 -28.5 344t-71 271t-91.5 197.5t-91 124.5l35 113q39 -26 85.5 -74t93.5 -116t91 -157t78.5 -197t55 -235.5
t20.5 -272.5v-10z" />
    <glyph glyph-name="asterisk" unicode="*" horiz-adv-x="882" 
d="M330 983l-302 90l46 151l302 -112l-9 344h153l-10 -349l297 110l46 -152l-307 -91l198 -271l-124 -94l-186 288l-180 -281l-125 91z" />
    <glyph glyph-name="plus" unicode="+" horiz-adv-x="1017" 
d="M596 781h329v-175h-329v-460h-178v460h-332v175h332v425h178v-425z" />
    <glyph glyph-name="comma" unicode="," horiz-adv-x="402" 
d="M308 71q0 -45 -11.5 -94t-34 -97t-54.5 -92t-74 -78l-105 72q47 66 72.5 135.5t25.5 150.5v151h181v-148z" />
    <glyph glyph-name="hyphen" unicode="-" horiz-adv-x="508" 
d="M460 543h-413v151h413v-151z" />
    <glyph glyph-name="period" unicode="." horiz-adv-x="539" 
d="M144 97q0 48 28.5 80t85.5 32t86.5 -32t29.5 -80q0 -46 -29.5 -77t-86.5 -31t-85.5 31t-28.5 77z" />
    <glyph glyph-name="slash" unicode="/" horiz-adv-x="759" 
d="M181 -125h-150l511 1581h149z" />
    <glyph glyph-name="zero" unicode="0" horiz-adv-x="1011" 
d="M895 621q0 -179 -27.5 -301.5t-78 -198t-122.5 -108.5t-161 -33q-88 0 -160 33t-123.5 108.5t-79.5 198t-28 301.5v222q0 179 28 300t79 195t122.5 106t159.5 32q89 0 161 -32t123 -106t79 -195t28 -300v-222zM718 874q0 123 -14 209t-41 139.5t-67 77.5t-92 24
q-51 0 -90.5 -24t-66.5 -77.5t-41.5 -139.5t-14.5 -209v-282q0 -122 14.5 -209.5t42 -143.5t67.5 -82t91 -26q52 0 92 26t66.5 82t40 143.5t13.5 209.5v282z" />
    <glyph glyph-name="one" unicode="1" horiz-adv-x="1011" 
d="M644 0h-178v1233l-306 -137v168l456 199h28v-1463z" />
    <glyph glyph-name="two" unicode="2" horiz-adv-x="1011" 
d="M931 0h-814v133l400 530q55 73 90.5 129t56 102.5t28 87t7.5 82.5q0 54 -13 101.5t-38 82.5t-61.5 55.5t-83.5 20.5q-61 0 -104.5 -22t-72 -61t-42 -93.5t-13.5 -120.5h-177q0 92 26 174t77 143t127.5 96.5t178.5 35.5q88 0 157.5 -28t117.5 -79.5t73.5 -123.5t25.5 -159
q0 -64 -17.5 -129t-48.5 -129.5t-72 -128t-87 -124.5l-324 -424h603v-151z" />
    <glyph glyph-name="three" unicode="3" horiz-adv-x="1011" 
d="M343 818h115q57 0 99.5 19t70 52.5t41.5 79t14 99.5q0 125 -49.5 190.5t-148.5 65.5q-47 0 -84.5 -17.5t-63.5 -50t-40.5 -79t-14.5 -103.5h-176q0 84 26.5 157t76 127.5t119.5 86t157 31.5q84 0 152.5 -26.5t118 -78t76.5 -128.5t27 -179q0 -41 -10.5 -86t-33.5 -88
t-58.5 -80.5t-86.5 -62.5q62 -23 102 -60.5t63 -83.5t32 -97t9 -100q0 -102 -30 -181.5t-82.5 -133.5t-124 -82.5t-155.5 -28.5q-82 0 -152.5 26.5t-122.5 78t-81.5 127t-29.5 172.5h177q0 -57 14 -103.5t41 -80t65.5 -51.5t88.5 -18q99 0 157.5 67t58.5 204
q0 136 -65 200.5t-177 64.5h-115v151z" />
    <glyph glyph-name="four" unicode="4" horiz-adv-x="1011" 
d="M787 489h162v-151h-162v-338h-177v338h-550v109l541 1009h186v-967zM256 489h354v692l-9 -18z" />
    <glyph glyph-name="five" unicode="5" horiz-adv-x="1011" 
d="M189 730l63 726h633v-171h-484l-34 -397q33 23 81.5 43t112.5 20q85 0 153 -34.5t114.5 -98t71.5 -153.5t25 -201q0 -105 -24.5 -193.5t-74 -153t-123.5 -101t-173 -36.5q-75 0 -141.5 24.5t-118 74.5t-84.5 126t-41 178h166q15 -125 71.5 -188.5t147.5 -63.5q51 0 92 23
t69 66t43 104.5t15 137.5q0 68 -15.5 127t-44.5 102.5t-72.5 68.5t-98.5 25q-38 0 -64.5 -6.5t-47 -18.5t-38.5 -29.5t-38 -38.5z" />
    <glyph glyph-name="six" unicode="6" horiz-adv-x="1010" 
d="M732 1457v-157h-14q-113 0 -188.5 -39t-122 -104t-68.5 -149t-28 -175q50 63 113 92.5t135 29.5q93 0 159 -41.5t108.5 -109t62.5 -153.5t20 -176q0 -104 -24 -194.5t-72.5 -157t-120.5 -105t-168 -38.5q-102 0 -176 49t-122.5 128.5t-71.5 179.5t-23 201v87
q0 102 8.5 203.5t32 194t65 172t106.5 138t157.5 91.5t217.5 33h14zM529 801q-38 0 -72 -15t-63 -41.5t-51 -62t-35 -76.5v-73q0 -98 18.5 -172.5t49 -125t69.5 -76.5t79 -26q51 0 90.5 24.5t66.5 69t41 105.5t14 134q0 65 -12.5 125.5t-38.5 107t-65 74.5t-91 28z" />
    <glyph glyph-name="seven" unicode="7" horiz-adv-x="1011" 
d="M920 1352l-501 -1352h-185l500 1304h-649v152h835v-104z" />
    <glyph glyph-name="eight" unicode="8" horiz-adv-x="1011" 
d="M866 1076q0 -109 -48.5 -194t-130.5 -133q47 -24 85.5 -60t65.5 -81.5t41.5 -99.5t14.5 -115q0 -100 -30 -177t-82 -129.5t-123.5 -79.5t-153.5 -27q-83 0 -154 27t-123 79.5t-82 129.5t-30 177q0 61 14 115t40.5 100t64 82t84.5 60q-82 48 -129 132.5t-47 193.5
q0 95 27 169.5t75 125.5t114.5 78t145.5 27t145.5 -27t114.5 -78t74.5 -125.5t26.5 -169.5zM717 397q0 61 -15 112t-43 87.5t-67.5 56.5t-88.5 20q-50 0 -89 -20t-66 -56.5t-41.5 -87.5t-14.5 -112q0 -126 55.5 -196t157.5 -70t157 70t55 196zM690 1073q0 54 -13 100
t-37.5 79.5t-58.5 52.5t-76 19t-76 -17.5t-58 -50t-37.5 -79t-13.5 -104.5q0 -56 13 -102t37.5 -78.5t58.5 -50t76 -17.5t76.5 17.5t58.5 50t37 78.5t13 102z" />
    <glyph glyph-name="nine" unicode="9" horiz-adv-x="1011" 
d="M290 155q124 0 202 38.5t123 103.5t63 149t21 176q-48 -61 -110.5 -98t-137.5 -37q-93 0 -158.5 42.5t-107.5 111t-61.5 155.5t-19.5 176q0 104 24 196t71.5 160.5t119 108t167.5 39.5q107 0 181.5 -50.5t121 -133.5t67.5 -188.5t21 -216.5v-67q0 -95 -6.5 -192.5
t-27.5 -189t-60 -171.5t-104 -139.5t-160.5 -94t-228.5 -34.5h-13v156h13zM481 640q34 0 66.5 15t61.5 41t52.5 61.5t39.5 76.5v78q0 99 -18.5 175.5t-49 128.5t-69 79t-78.5 27q-50 0 -89 -26t-65.5 -71.5t-40.5 -107.5t-14 -135q0 -65 12 -126.5t37 -109.5t63.5 -77
t91.5 -29z" />
    <glyph glyph-name="colon" unicode=":" horiz-adv-x="478" 
d="M138 97q0 48 28.5 80t85.5 32t86.5 -32t29.5 -80q0 -46 -29.5 -77t-86.5 -31t-85.5 31t-28.5 77zM139 980q0 48 28.5 80t85.5 32t86.5 -32t29.5 -80q0 -46 -29.5 -77t-86.5 -31t-85.5 31t-28.5 77z" />
    <glyph glyph-name="semicolon" unicode=";" horiz-adv-x="415" 
d="M115 980q0 48 28.5 80t85.5 32t86.5 -32t29.5 -80q0 -46 -29.5 -77t-86.5 -31t-85.5 31t-28.5 77zM322 71q0 -45 -11.5 -94t-34 -97t-54.5 -92t-74 -78l-105 72q47 66 72.5 135.5t25.5 150.5v151h181v-148z" />
    <glyph glyph-name="less" unicode="&#x3c;" horiz-adv-x="913" 
d="M253 644l510 -253v-196l-684 379v146l684 378v-196z" />
    <glyph glyph-name="equal" unicode="=" horiz-adv-x="981" 
d="M849 814h-701v161h701v-161zM849 399h-701v160h701v-160z" />
    <glyph glyph-name="greater" unicode="&#x3e;" horiz-adv-x="942" 
d="M678 651l-542 258v190l720 -378v-146l-720 -379v192z" />
    <glyph glyph-name="question" unicode="?" horiz-adv-x="864" 
d="M314 410q0 72 8 123t25 93t45 81.5t69 88.5q27 35 52 66.5t44.5 65t31.5 72.5t12 90q0 105 -43.5 164.5t-124.5 59.5q-32 0 -63.5 -11.5t-57 -36t-41 -62t-15.5 -89.5h-176q1 85 28 152t74.5 113.5t111.5 71t139 24.5q82 0 146 -26.5t108.5 -76t67.5 -120t23 -157.5
q0 -68 -19 -127t-50 -112.5t-69.5 -101t-77.5 -92.5q-43 -51 -57.5 -115t-14.5 -138h-176zM310 93q0 45 24.5 75.5t75.5 30.5q50 0 75.5 -30.5t25.5 -75.5t-25.5 -74.5t-75.5 -29.5q-51 0 -75.5 29.5t-24.5 74.5z" />
    <glyph glyph-name="at" unicode="@" horiz-adv-x="1575" 
d="M1472 502q-2 -61 -11.5 -124t-27.5 -121t-45.5 -108.5t-65.5 -88t-88 -59t-112 -21.5q-79 0 -129.5 41.5t-73.5 117.5q-45 -80 -100.5 -119.5t-112.5 -39.5q-63 0 -109.5 31.5t-75.5 88.5t-40 137.5t-3 179.5q10 132 44 238t83.5 180t110.5 114t124 40q47 0 82.5 -8.5
t64.5 -23t53.5 -33.5t48.5 -41l-45 -554q-5 -73 2.5 -118.5t22 -70.5t34 -33.5t40.5 -8.5q49 0 86.5 31.5t64 86t41 128.5t17.5 158q7 187 -21 334.5t-93.5 250.5t-168.5 157.5t-245 54.5q-131 0 -234.5 -59.5t-176.5 -168t-114.5 -259.5t-47.5 -334q-7 -187 24 -336
t97.5 -253.5t166.5 -160.5t231 -56q37 0 75.5 5.5t75 16t69.5 25t59 32.5l33 -115q-30 -22 -68 -38.5t-80 -28t-85 -17t-82 -5.5q-160 0 -284.5 64.5t-209 185.5t-125.5 293.5t-34 387.5q7 205 60.5 379.5t146 302t221 199.5t286.5 72q159 0 282.5 -65.5t206.5 -186
t122.5 -292.5t32.5 -385zM628 417q-11 -142 22 -218t102 -76q18 0 38.5 10t41 32.5t39 58t33.5 85.5l2 20l39 509q-19 10 -41 16.5t-48 6.5q-44 0 -82 -28t-68 -84t-50.5 -139t-27.5 -193z" />
    <glyph glyph-name="A" unicode="A" horiz-adv-x="1180" 
d="M836 380h-492l-113 -380h-188l469 1456h157l470 -1456h-188zM392 538h397l-199 662z" />
    <glyph glyph-name="B" unicode="B" horiz-adv-x="1117" 
d="M157 0v1456h415q94 0 168.5 -22.5t126 -70t78.5 -120.5t27 -175t-51 -180t-138 -121q53 -16 93.5 -49t68 -78.5t41.5 -101.5t14 -118q0 -102 -29 -180.5t-82.5 -132t-129.5 -80.5t-169 -27h-433zM340 681v-524h250q54 0 96 18.5t71 52t44 82t15 108.5t-12.5 109t-39 83
t-68 52.5t-99.5 18.5h-257zM340 835h235q46 0 85 16t67 46t44 73.5t16 98.5q0 120 -53 174.5t-162 54.5h-232v-463z" />
    <glyph glyph-name="C" unicode="C" horiz-adv-x="1161" 
d="M1070 462q-6 -113 -37.5 -202t-89.5 -151.5t-143.5 -95.5t-198.5 -33q-110 0 -198 43t-150 123t-95.5 193t-33.5 254v269q0 140 33.5 253.5t97 193.5t155.5 123.5t208 43.5q106 0 187.5 -32t138.5 -94t89 -153t37 -209h-185q-6 86 -23 148t-49 102.5t-80 60t-115 19.5
q-80 0 -138 -32.5t-96 -91.5t-56.5 -143t-18.5 -187v-271q0 -96 15.5 -179t50 -145t90.5 -97.5t136 -35.5q75 0 126.5 18.5t84 58t49.5 101t24 148.5h185z" />
    <glyph glyph-name="D" unicode="D" horiz-adv-x="1169" 
d="M157 0v1456h347q123 0 222 -38.5t169 -115t108 -190t38 -262.5v-246q0 -149 -38 -262t-109 -189t-174 -114.5t-233 -38.5h-330zM340 1298v-1141h147q195 0 284 113t89 334v249q0 230 -88.5 337.5t-267.5 107.5h-164z" />
    <glyph glyph-name="E" unicode="E" horiz-adv-x="1017" 
d="M855 673h-515v-516h600v-157h-783v1456h773v-158h-590v-468h515v-157z" />
    <glyph glyph-name="F" unicode="F" horiz-adv-x="984" 
d="M832 643h-492v-643h-183v1456h758v-158h-575v-498h492v-157z" />
    <glyph glyph-name="G" unicode="G" horiz-adv-x="1210" 
d="M1068 181q-18 -24 -48.5 -58.5t-81.5 -66t-125.5 -54t-180.5 -22.5q-113 0 -206.5 38t-160.5 114t-104 191t-37 268v274q0 611 489 611q106 0 188.5 -30.5t139.5 -88t89 -140.5t38 -188h-183q-11 136 -75.5 212.5t-195.5 76.5q-84 0 -142 -28t-94.5 -84.5t-53 -141
t-16.5 -197.5v-276q0 -116 23 -202t65.5 -142t102.5 -83.5t134 -27.5q63 0 106 11t71.5 27t45.5 32t29 27v336h-266v156h449v-544z" />
    <glyph glyph-name="H" unicode="H" horiz-adv-x="1270" 
d="M1110 0h-184v673h-586v-673h-183v1456h183v-626h586v626h184v-1456z" />
    <glyph glyph-name="I" unicode="I" horiz-adv-x="512" 
d="M348 0h-183v1456h183v-1456z" />
    <glyph glyph-name="J" unicode="J" horiz-adv-x="990" 
d="M659 1456h184v-1031q0 -108 -29 -191.5t-81 -139.5t-124.5 -85t-158.5 -29q-85 0 -156.5 25.5t-123.5 78t-81.5 132t-29.5 186.5h183q0 -69 16 -119t44 -82.5t66 -48t82 -15.5q45 0 83.5 18.5t66.5 54.5t43.5 90t15.5 125v1031z" />
    <glyph glyph-name="K" unicode="K" horiz-adv-x="1116" 
d="M483 671l-143 -173v-498h-183v1456h183v-703l120 159l392 544h220l-473 -641l510 -815h-219z" />
    <glyph glyph-name="L" unicode="L" horiz-adv-x="973" 
d="M341 157h571v-157h-755v1456h184v-1299z" />
    <glyph glyph-name="M" unicode="M" horiz-adv-x="1547" 
d="M393 1456l380 -1188l380 1188h236v-1456h-183v567l17 568l-381 -1135h-140l-379 1131l17 -564v-567h-183v1456h236z" />
    <glyph glyph-name="N" unicode="N" horiz-adv-x="1268" 
d="M1108 0h-184l-583 1122v-1122h-184v1456h184l585 -1127v1127h182v-1456z" />
    <glyph glyph-name="O" unicode="O" horiz-adv-x="1230" 
d="M1104 600q0 -155 -34 -271t-97 -193.5t-153.5 -116.5t-203.5 -39q-110 0 -200 39t-155 116.5t-100.5 193.5t-35.5 271v253q0 154 35.5 270.5t99.5 195t154 118t200 39.5q113 0 203.5 -39.5t154.5 -118t98 -195t34 -270.5v-253zM921 855q0 120 -20 206.5t-59 142t-96 81.5
t-132 26q-71 0 -127.5 -26t-96.5 -81.5t-61.5 -142t-21.5 -206.5v-255q0 -121 22 -207.5t62 -142t97 -81.5t128 -26q75 0 132 26t95.5 81.5t58 142t19.5 207.5v255z" />
    <glyph glyph-name="P" unicode="P" horiz-adv-x="1135" 
d="M340 570v-570h-183v1456h464q105 0 186.5 -33t136.5 -92.5t83.5 -141t28.5 -178.5q0 -105 -28.5 -187.5t-84 -138.5t-136.5 -85.5t-186 -29.5h-281zM340 727h281q67 0 114.5 21t78 58.5t45 89t14.5 113.5q0 56 -14.5 108.5t-45 92.5t-78 64t-114.5 24h-281v-571z" />
    <glyph glyph-name="Q" unicode="Q" horiz-adv-x="1230" 
d="M1096 601q0 -192 -51.5 -324.5t-146.5 -206.5l217 -195l-124 -121l-262 239q-29 -6 -59.5 -9.5t-62.5 -3.5q-110 0 -200 39t-155 117t-100.5 194t-35.5 271v252q0 154 35.5 271t99.5 195t154 117.5t200 39.5q113 0 204 -39.5t154.5 -117.5t98 -195t34.5 -271v-252z
M913 855q0 120 -20 206.5t-59 142t-96.5 81.5t-132.5 26q-70 0 -126.5 -26t-96.5 -81.5t-61.5 -142t-21.5 -206.5v-254q0 -121 22 -208t62 -142.5t97 -81.5t127 -26q75 0 132 26t96 81.5t58.5 142.5t19.5 208v254z" />
    <glyph glyph-name="R" unicode="R" horiz-adv-x="1087" 
d="M597 589h-256v-589h-184v1456h408q214 0 324 -111.5t110 -326.5q0 -135 -59.5 -235.5t-168.5 -151.5l282 -619v-12h-197zM341 746h222q63 0 110 21.5t78.5 58t47.5 86t16 106.5q0 63 -14 114.5t-44 88.5t-77.5 57t-114.5 20h-224v-552z" />
    <glyph glyph-name="S" unicode="S" horiz-adv-x="1061" 
d="M793 368q0 51 -11.5 90t-42.5 71.5t-84 61t-137 58.5q-90 31 -163 70.5t-124.5 91t-79.5 117.5t-28 151t29.5 157.5t84 126t132 83.5t172.5 30q106 0 187.5 -37t137 -98t83.5 -141t28 -165h-184q0 61 -14.5 113t-45.5 90t-78.5 59t-113.5 21q-61 0 -105 -18t-72.5 -49.5
t-42 -74.5t-13.5 -94q0 -92 66 -154t204 -111q106 -35 182 -77.5t124.5 -96.5t71 -121t22.5 -152q0 -89 -30 -161t-85.5 -123t-134.5 -78.5t-178 -27.5q-86 0 -169.5 28t-149 83.5t-106 138.5t-40.5 192h184q0 -75 22 -128.5t60.5 -88.5t89.5 -51.5t109 -16.5q121 0 182 62
t61 169z" />
    <glyph glyph-name="T" unicode="T" horiz-adv-x="1066" 
d="M1008 1298h-383v-1298h-183v1298h-382v158h948v-158z" />
    <glyph glyph-name="U" unicode="U" horiz-adv-x="1150" 
d="M1025 1456v-1026q0 -123 -37 -208.5t-99 -139.5t-143 -78t-170 -24q-94 0 -175.5 24t-141.5 78t-94.5 139.5t-34.5 208.5v1026h182v-1026q0 -85 19 -141.5t53.5 -90.5t83 -48t108.5 -14t109 14t83.5 48t53.5 90.5t19 141.5v1026h184z" />
    <glyph glyph-name="V" unicode="V" horiz-adv-x="1147" 
d="M573 281l333 1175h201l-453 -1456h-160l-452 1456h200z" />
    <glyph glyph-name="W" unicode="W" horiz-adv-x="1560" 
d="M435 459l19 -163l29 144l233 1016h153l226 -1016l29 -148l21 168l178 996h183l-290 -1456h-165l-243 1061l-15 86l-15 -86l-252 -1061h-166l-289 1456h183z" />
    <glyph glyph-name="X" unicode="X" horiz-adv-x="1128" 
d="M566 898l274 558h215l-379 -722l387 -734h-217l-280 568l-281 -568h-217l389 734l-381 722h214z" />
    <glyph glyph-name="Y" unicode="Y" horiz-adv-x="1074" 
d="M536 725l298 731h207l-414 -913v-543h-183v543l-414 913h208z" />
    <glyph glyph-name="Z" unicode="Z" horiz-adv-x="1070" 
d="M294 157h691v-157h-894v144l663 1154h-656v158h860v-141z" />
    <glyph glyph-name="bracketleft" unicode="[" horiz-adv-x="513" 
d="M469 1512h-155v-1672h155v-152h-332v1976h332v-152z" />
    <glyph glyph-name="backslash" unicode="\" horiz-adv-x="756" 
d="M51 1456h167l510 -1581h-166z" />
    <glyph glyph-name="bracketright" unicode="]" horiz-adv-x="513" 
d="M30 1664h333v-1976h-333v152h157v1672h-157v152z" />
    <glyph glyph-name="asciicircum" unicode="^" horiz-adv-x="760" 
d="M379 1211l-147 -482h-163l252 727h118l250 -727h-161z" />
    <glyph glyph-name="underscore" unicode="_" horiz-adv-x="829" 
d="M805 -151h-781v151h781v-151z" />
    <glyph glyph-name="grave" unicode="`" horiz-adv-x="633" 
d="M474 1240h-159l-258 294h223z" />
    <glyph glyph-name="a" unicode="a" horiz-adv-x="981" 
d="M689 0q-9 20 -14.5 51.5t-8.5 66.5q-19 -28 -43.5 -53t-55 -44t-66 -30t-75.5 -11q-71 0 -128.5 20t-98.5 60t-63 98.5t-22 136.5t27 144t80 114t133 75.5t186 27.5h123v115q0 97 -43 138t-131 41q-43 0 -76.5 -13.5t-56.5 -36.5t-35 -53.5t-12 -64.5h-177
q0 58 25.5 115.5t73 103t115.5 73.5t152 28q75 0 137.5 -18t108 -58t70.5 -103t25 -154v-533q0 -27 2 -57t6.5 -59t11 -55.5t14.5 -48.5v-16h-184zM453 141q37 0 70 11t60 28.5t47.5 40t32.5 46.5v258h-93q-64 0 -115.5 -14t-88 -40.5t-56 -65.5t-19.5 -89q0 -49 10 -82.5
t30 -54t50.5 -29.5t71.5 -9z" />
    <glyph glyph-name="b" unicode="b" horiz-adv-x="1010" 
d="M916 489q0 -129 -23.5 -224.5t-69 -158.5t-111.5 -94.5t-151 -31.5q-91 0 -153.5 38t-104.5 110l-9 -128h-161v1536h176v-573q42 67 103 103t147 36t152.5 -30t112 -92.5t69 -159.5t23.5 -230v-101zM740 590q0 90 -11.5 156.5t-38 110.5t-70 66t-107.5 22
q-76 0 -125.5 -42t-78.5 -106v-515q14 -31 33.5 -58t45 -46.5t57 -30.5t70.5 -11q121 0 173 85.5t52 267.5v101z" />
    <glyph glyph-name="c" unicode="c" horiz-adv-x="946" 
d="M508 131q39 0 74 12t62 37.5t43.5 65t19.5 95.5h167q-3 -81 -33.5 -147.5t-80 -114t-114.5 -73.5t-138 -26q-105 0 -182.5 34t-128.5 98t-76 157t-25 211v122q0 118 25 210.5t76 157t128 98.5t182 34q82 0 148.5 -26.5t114 -77t74.5 -123.5t30 -165h-167
q-6 120 -57.5 180t-142.5 60q-70 0 -115 -25t-71.5 -70.5t-37 -109.5t-10.5 -143v-122q0 -80 10 -144.5t36.5 -110t72 -70t116.5 -24.5z" />
    <glyph glyph-name="d" unicode="d" horiz-adv-x="1016" 
d="M95 590q0 133 26 230t73.5 159.5t114.5 92.5t148 30t140.5 -32.5t101.5 -93.5v560h177v-1536h-162l-9 116q-42 -66 -103 -101t-146 -35q-80 0 -146.5 31.5t-114 94.5t-74 158.5t-26.5 224.5v101zM272 489q0 -182 54 -267.5t176 -85.5q74 0 121 37t76 96v546
q-30 57 -77.5 93.5t-118.5 36.5q-123 0 -177 -87t-54 -268v-101z" />
    <glyph glyph-name="e" unicode="e" horiz-adv-x="959" 
d="M519 -20q-97 0 -175 29t-132.5 88.5t-83.5 150.5t-29 215v122q0 143 34 241.5t89.5 160t127.5 88.5t149 27q102 0 174 -33.5t118 -98.5t67 -160t21 -219v-103h-604v-25q0 -174 65.5 -253t188.5 -79q45 0 81 9t66 25.5t55 39t47 49.5l92 -112q-22 -31 -53 -60t-74 -51.5
t-98.5 -36.5t-125.5 -14zM499 950q-46 0 -85 -14t-68.5 -49.5t-47.5 -95.5t-22 -151h426v24q-3 63 -13.5 115.5t-33 90.5t-60.5 59t-96 21z" />
    <glyph glyph-name="f" unicode="f" horiz-adv-x="648" 
d="M210 0v939h-141v143h141v114q0 87 21.5 154.5t61.5 113.5t98 69.5t130 23.5q53 0 107 -17l-9 -150q-17 4 -39 6.5t-42 2.5q-72 0 -111.5 -52.5t-39.5 -150.5v-114h185v-143h-185v-939h-177z" />
    <glyph glyph-name="g" unicode="g" horiz-adv-x="1009" 
d="M97 590q0 133 25 230t72 159.5t114 92.5t150 30q87 0 148 -36t103 -105l9 121h160v-1091q0 -108 -28.5 -186.5t-80.5 -129.5t-123.5 -76t-157.5 -25q-31 0 -75 8.5t-90.5 25.5t-90 42.5t-73.5 60.5l72 122q58 -57 122 -82.5t121 -25.5q52 0 94 13.5t71.5 44t45.5 79.5
t16 120v125q-42 -62 -101.5 -94.5t-142.5 -32.5q-82 0 -148.5 31.5t-113.5 94.5t-72.5 158.5t-25.5 224.5v101zM274 489q0 -182 53.5 -267.5t175.5 -85.5q75 0 122 38t76 97v541q-30 58 -77.5 95.5t-118.5 37.5q-123 0 -177 -87t-54 -268v-101z" />
    <glyph glyph-name="h" unicode="h" horiz-adv-x="989" 
d="M309 971q48 62 113.5 96.5t144.5 34.5q66 0 120 -21.5t92 -69t58.5 -122t20.5 -180.5v-709h-176v711q0 127 -42.5 180.5t-127.5 53.5q-66 0 -118.5 -44t-84.5 -115v-786h-177v1536h177v-565z" />
    <glyph glyph-name="i" unicode="i" horiz-adv-x="469" 
d="M323 0h-177v1082h177v-1082zM136 1369q0 45 25 76t75 31t75.5 -31.5t25.5 -75.5q0 -45 -25 -75t-76 -30q-50 0 -75 30t-25 75z" />
    <glyph glyph-name="j" unicode="j" horiz-adv-x="458" 
d="M313 1082v-1211q0 -150 -58 -229t-180 -79q-21 0 -49.5 5t-47.5 13l-1 148q17 -5 36.5 -6.5t32.5 -1.5q45 0 67.5 33.5t22.5 116.5v1211h177zM121 1369q0 45 24.5 76t74.5 31t75.5 -31.5t25.5 -75.5q0 -45 -25 -75t-76 -30q-50 0 -74.5 30t-24.5 75z" />
    <glyph glyph-name="k" unicode="k" horiz-adv-x="923" 
d="M404 495l-94 -108v-387h-177v1536h177v-919l79 109l258 356h212l-344 -452l389 -630h-206z" />
    <glyph glyph-name="l" unicode="l" horiz-adv-x="469" 
d="M323 0h-177v1536h177v-1536z" />
    <glyph glyph-name="m" unicode="m" horiz-adv-x="1541" 
d="M299 1082l4 -100q47 57 111.5 88.5t149.5 31.5q82 0 148.5 -37t104.5 -120q46 71 116.5 114t167.5 43q73 0 130 -22.5t96 -70.5t59.5 -122t20.5 -176v-711h-176v712q0 68 -13 113t-37 72t-58 37.5t-76 10.5t-75 -17t-56.5 -47t-38 -70t-18.5 -86v-5v-720h-178v711
q0 63 -12.5 107.5t-36.5 72.5t-58 41t-76 13q-74 0 -119 -36.5t-70 -97.5v-811h-176v1082h166z" />
    <glyph glyph-name="n" unicode="n" horiz-adv-x="991" 
d="M299 1082l5 -117q49 65 115.5 101t147.5 36q66 0 120 -21.5t92 -69t58.5 -122t20.5 -180.5v-709h-176v711q0 127 -42.5 180.5t-127.5 53.5q-66 0 -118.5 -44t-84.5 -115v-786h-177v1082h167z" />
    <glyph glyph-name="o" unicode="o" 
d="M95 591q0 127 32.5 222.5t89 159.5t132.5 96.5t163 32.5q88 0 165 -32.5t133.5 -96.5t89 -159.5t32.5 -222.5v-102q0 -126 -32.5 -221.5t-89 -159.5t-132.5 -96t-164 -32t-164.5 32t-133 96t-89 159.5t-32.5 221.5v102zM272 489q0 -90 18.5 -157t51 -111.5t76.5 -67
t96 -22.5q241 0 241 358v102q0 89 -18.5 156t-51 112t-77 68t-96.5 23q-51 0 -95 -23t-76 -68t-50.5 -112t-18.5 -156v-102z" />
    <glyph glyph-name="p" unicode="p" horiz-adv-x="1010" 
d="M914 489q0 -257 -92.5 -383t-261.5 -126q-85 0 -146.5 31.5t-104.5 91.5v-519h-176v1498h160l9 -120q43 68 105.5 104t149.5 36t153.5 -30t111.5 -92.5t68.5 -159.5t23.5 -230v-101zM738 590q0 182 -56 268.5t-180 86.5q-69 0 -116.5 -35.5t-76.5 -91.5v-563
q29 -55 75 -89.5t120 -34.5q121 0 177.5 88t56.5 270v101z" />
    <glyph glyph-name="q" unicode="q" horiz-adv-x="1025" 
d="M95 590q0 133 25 230t72 159.5t115 92.5t154 30q81 0 141.5 -32.5t102.5 -93.5l8 106h162v-1498h-177v511q-42 -56 -101 -85.5t-137 -29.5q-86 0 -153.5 31.5t-114.5 94.5t-72 158.5t-25 224.5v101zM272 489q0 -182 56 -270t178 -88q69 0 115 32.5t77 86.5v580
q-32 53 -78.5 86.5t-112.5 33.5q-123 0 -179 -89.5t-56 -270.5v-101z" />
    <glyph glyph-name="r" unicode="r" horiz-adv-x="623" 
d="M579 916q-21 4 -39 5.5t-41 1.5q-72 0 -118.5 -40t-71.5 -109v-774h-177v1082h172l3 -110q33 60 82.5 95t118.5 35q8 0 18.5 -1.5t20.5 -3.5t18.5 -4.5t12.5 -4.5z" />
    <glyph glyph-name="s" unicode="s" horiz-adv-x="933" 
d="M658 277q0 30 -11 54.5t-36 47t-64.5 44.5t-97.5 48q-75 31 -134.5 61t-100 66.5t-62 84t-21.5 112.5q0 64 24.5 120t69.5 97.5t108 65.5t141 24q82 0 147 -25t110 -69.5t69 -104.5t24 -129h-176q0 33 -11.5 64.5t-34 56.5t-54.5 40t-74 15q-45 0 -76.5 -12.5t-51.5 -33
t-29.5 -47.5t-9.5 -56q0 -30 8.5 -51.5t29.5 -40.5t57.5 -38t93.5 -44q82 -32 145.5 -64.5t106.5 -71t65 -87.5t22 -114q0 -71 -25.5 -128.5t-72.5 -98t-113 -62t-146 -21.5q-92 0 -163 28.5t-119 76t-72.5 109.5t-24.5 129h178q2 -57 21 -94t47.5 -59t63.5 -30.5t69 -8.5
q88 0 134 39.5t46 106.5z" />
    <glyph glyph-name="t" unicode="t" horiz-adv-x="605" 
d="M364 1344v-262h163v-143h-163v-671q0 -42 8 -67.5t21 -39.5t29.5 -18.5t34.5 -4.5t40 4.5t31 7.5l-2 -150q-18 -6 -47.5 -13t-75.5 -7q-43 0 -82 14.5t-68.5 48.5t-47 89.5t-17.5 136.5v670h-165v143h165v262h176z" />
    <glyph glyph-name="u" unicode="u" horiz-adv-x="990" 
d="M684 95q-42 -55 -105.5 -85t-151.5 -30q-67 0 -122 22.5t-94 71t-60.5 125t-21.5 184.5v699h176v-701q0 -73 13.5 -120.5t35 -75t49 -38t54.5 -10.5q88 0 141 39t81 105v801h177v-1082h-168z" />
    <glyph glyph-name="v" unicode="v" horiz-adv-x="876" 
d="M439 269l205 813h180l-321 -1082h-132l-325 1082h180z" />
    <glyph glyph-name="w" unicode="w" horiz-adv-x="1331" 
d="M939 311l164 771h175l-265 -1082h-141l-211 774l-206 -774h-142l-263 1082h174l168 -752l201 752h140z" />
    <glyph glyph-name="x" unicode="x" horiz-adv-x="899" 
d="M445 687l185 395h205l-294 -535l301 -547h-203l-191 405l-192 -405h-204l301 547l-293 535h203z" />
    <glyph glyph-name="y" unicode="y" horiz-adv-x="853" 
d="M428 294l197 788h188l-358 -1249q-12 -40 -33.5 -87t-54.5 -87.5t-79.5 -68t-107.5 -27.5q-10 0 -23 2t-26 4.5t-24.5 5t-18.5 4.5v150q6 -2 19.5 -3t19.5 -1q39 0 69 9t53.5 29.5t41 54.5t31.5 84l31 107l-318 1073h193z" />
    <glyph glyph-name="z" unicode="z" horiz-adv-x="899" 
d="M296 151h522v-151h-724v136l496 793h-492v153h700v-131z" />
    <glyph glyph-name="braceleft" unicode="{" horiz-adv-x="627" 
d="M549 -366q-87 29 -146 76t-94 107t-50 132t-15 150v206q0 54 -9.5 98t-30.5 75t-53.5 48t-78.5 17v145q91 0 131.5 64t40.5 173v207q0 79 15 150.5t50 132t94 107t146 75.5l36 -115q-48 -19 -79.5 -53t-50 -79.5t-26.5 -101t-8 -116.5v-207q0 -101 -35 -182t-112 -128
q77 -47 112 -128.5t35 -181.5v-206q0 -62 7.5 -117t26.5 -100.5t50 -79.5t79 -53z" />
    <glyph glyph-name="bar" unicode="|" horiz-adv-x="499" 
d="M324 -270h-149v1726h149v-1726z" />
    <glyph glyph-name="braceright" unicode="}" horiz-adv-x="627" 
d="M39 -251q48 19 79.5 53t50.5 79.5t27 100.5t8 117v206q0 105 37.5 185.5t121.5 124.5q-83 43 -121 124.5t-38 185.5v207q0 61 -8 116.5t-27 101t-50.5 79.5t-79.5 53l36 115q88 -29 146.5 -75.5t93.5 -107t50 -132t15 -150.5v-207q0 -54 9.5 -98t30.5 -75t53.5 -47.5
t78.5 -16.5v-145q-46 0 -78.5 -17t-53.5 -48t-30.5 -75t-9.5 -98v-206q0 -78 -15 -150t-50 -132t-93.5 -107t-146.5 -76z" />
    <glyph glyph-name="asciitilde" unicode="~" horiz-adv-x="1207" 
d="M1084 777q0 -77 -21.5 -145t-59 -119t-89 -81t-111.5 -30q-37 0 -68.5 9t-61.5 26t-59.5 43t-61.5 61q-40 47 -74 72.5t-72 25.5q-62 0 -95 -53.5t-33 -147.5l-153 -2q0 78 21 145t58.5 116t89 77t112.5 28q72 0 130 -36.5t120 -102.5q41 -50 74.5 -74t72.5 -24
q30 0 55 15.5t43.5 43.5t28.5 66.5t10 85.5z" />
    <glyph glyph-name="exclamdown" unicode="&#xa1;" horiz-adv-x="474" 
d="M161 684h160l13 -1044h-186zM338 996q0 -45 -25.5 -76t-75.5 -31q-51 0 -76 31t-25 76t25 75t76 30q50 0 75.5 -30t25.5 -75z" />
    <glyph glyph-name="cent" unicode="&#xa2;" horiz-adv-x="983" 
d="M515 131q39 0 74 12t62 37.5t43.5 65t19.5 95.5h167q-3 -70 -26 -129.5t-61.5 -105t-90 -76t-110.5 -42.5v-233h-177v234q-80 15 -139 54.5t-97.5 102t-57.5 146.5t-19 188v122q0 103 19 187t58 146.5t97.5 102.5t138.5 55v225h177v-223q131 -24 206.5 -123.5
t81.5 -261.5h-167q-6 120 -57.5 180t-142.5 60q-70 0 -115 -25t-71.5 -70.5t-37 -109.5t-10.5 -143v-122q0 -80 10 -144.5t36.5 -110t72 -70t116.5 -24.5z" />
    <glyph glyph-name="sterling" unicode="&#xa3;" horiz-adv-x="1046" 
d="M411 622l7 -220q-1 -70 -14.5 -134t-40.5 -111h615l-1 -157h-878v157h58q21 6 36 32.5t24 62.5t12.5 76t3.5 73l-6 221h-131v157h126l-7 260q0 103 29.5 184.5t81 137.5t122 85.5t153.5 29.5t148.5 -28.5t110.5 -79.5t69 -122.5t24 -158.5h-182q0 63 -15.5 106.5
t-42 71.5t-60 40.5t-69.5 12.5q-38 0 -71.5 -18.5t-58.5 -54t-40 -87.5t-15 -119l8 -260h260v-157h-256z" />
    <glyph glyph-name="currency" unicode="&#xa4;" horiz-adv-x="1460" 
d="M1103 112q-76 -63 -169.5 -97.5t-198.5 -34.5q-104 0 -197 34t-169 96l-134 -136l-130 135l139 141q-50 75 -77 165.5t-27 192.5q0 106 29.5 199t82.5 170l-147 151l130 136l147 -150q75 57 164 88.5t189 31.5t190 -32t165 -89l149 152l132 -137l-151 -154
q52 -77 81 -169.5t29 -196.5q0 -100 -27 -190t-75 -165l143 -144l-132 -136zM311 608q0 -95 33.5 -178t91 -145t134.5 -98t165 -36q87 0 164 36t134.5 98t90.5 145t33 178q0 94 -33 177t-90.5 144.5t-134.5 97t-164 35.5q-88 0 -165 -35.5t-134.5 -97t-91 -144.5t-33.5 -177
z" />
    <glyph glyph-name="yen" unicode="&#xa5;" horiz-adv-x="1087" 
d="M538 816l287 640h209l-347 -720h251v-125h-311v-165h311v-124h-311v-322h-185v322h-306v124h306v165h-306v125h254l-348 720h209z" />
    <glyph glyph-name="brokenbar" unicode="&#xa6;" horiz-adv-x="491" 
d="M147 -270v791h186v-791h-186zM333 698h-186v758h186v-758z" />
    <glyph glyph-name="section" unicode="&#xa7;" horiz-adv-x="1100" 
d="M990 431q0 -96 -41.5 -165t-116.5 -109q59 -49 89.5 -117t30.5 -168q0 -87 -29.5 -155t-84 -115.5t-131.5 -72t-171 -24.5q-82 0 -161.5 22t-142.5 72t-101.5 132.5t-38.5 204.5l177 2q0 -79 24 -133t62 -87t86 -47t95 -14q57 0 101.5 16.5t75 45t46.5 67.5t16 84
q0 46 -14 80.5t-48 63.5t-89.5 55.5t-137.5 56.5q-92 29 -164 64t-122 84t-76.5 116t-26.5 161q0 93 40.5 162.5t113.5 110.5q-57 49 -87 117.5t-30 168.5q0 83 29.5 150.5t84 115.5t131.5 74t172 26q98 0 175.5 -28.5t131.5 -83t83 -135t29 -184.5h-176q0 58 -16 109
t-46.5 89t-76 60t-104.5 22q-62 0 -107 -17t-74.5 -46t-43.5 -68t-14 -82q0 -50 12 -85.5t44 -64t87.5 -54t141.5 -54.5q94 -31 167 -66t123.5 -83.5t76.5 -114.5t26 -159zM528 691q-38 12 -72 24t-66 26q-60 -20 -88 -70t-28 -118q0 -51 12 -87.5t43.5 -65.5t86.5 -55
t140 -56q37 -12 70.5 -24t63.5 -26q60 22 91.5 71.5t31.5 117.5q0 46 -14 81.5t-47 65.5t-88 57.5t-136 58.5z" />
    <glyph glyph-name="dieresis" unicode="&#xa8;" horiz-adv-x="856" 
d="M102 1371q0 45 27.5 75.5t81.5 30.5t82 -30.5t28 -75.5t-28 -75t-82 -30t-81.5 30t-27.5 75zM532 1369q0 45 27.5 76t81.5 31t82 -31t28 -76t-28 -75t-82 -30t-81.5 30t-27.5 75z" />
    <glyph glyph-name="copyright" unicode="&#xa9;" horiz-adv-x="1609" 
d="M1119 597q0 -79 -23 -138t-66 -98t-104.5 -58.5t-137.5 -19.5q-80 0 -144 28t-109 79t-69 122.5t-24 157.5v116q0 86 24 157t69 122t109 79.5t144 28.5q76 0 137.5 -19.5t104.5 -58.5t66.5 -98t23.5 -137h-146q0 99 -47.5 141.5t-138.5 42.5q-50 0 -87.5 -19t-63 -53
t-38.5 -81.5t-13 -103.5v-117q0 -57 13 -104.5t38.5 -81.5t63 -53t87.5 -19q92 0 138.5 42t46.5 143h146zM206 729q0 -134 47 -249t127.5 -200t189 -133.5t231.5 -48.5t231 48.5t188.5 133.5t127.5 200t47 249q0 133 -47 247.5t-127.5 199t-188.5 132.5t-231 48t-231.5 -48
t-189 -132.5t-127.5 -199t-47 -247.5zM91 729q0 106 25.5 202.5t71.5 179.5t111 150.5t144 115t169.5 73.5t188.5 26t188.5 -26t169 -73.5t143.5 -115t111 -150.5t71.5 -179.5t25.5 -202.5t-25.5 -202.5t-71.5 -180t-111 -151t-143.5 -116t-169 -74.5t-188.5 -26t-188.5 26
t-169.5 74.5t-144 116t-111 151t-71.5 180t-25.5 202.5z" />
    <glyph glyph-name="ordfeminine" unicode="&#xaa;" horiz-adv-x="811" 
d="M529 705q-5 16 -8 33t-6 35q-26 -34 -66 -58t-100 -24q-101 0 -155 62t-54 165q0 111 70 171t218 60h81v52q0 66 -22 100.5t-70 34.5q-52 0 -81 -27t-29 -78l-153 12q0 51 18.5 93.5t53 73.5t83 48.5t108.5 17.5q55 0 100.5 -17.5t78 -52t50 -86t17.5 -120.5v-314
q0 -96 22 -181h-156zM388 828q32 0 65 18t56 43v148h-80q-36 0 -61.5 -9t-42 -25t-24 -36.5t-7.5 -44.5q0 -44 23 -69t71 -25z" />
    <glyph glyph-name="guillemotleft" unicode="&#xab;" horiz-adv-x="856" 
d="M265 548l211 -397h-129l-248 388v19l248 389h129zM549 548l211 -397h-129l-248 388v19l248 389h129z" />
    <glyph glyph-name="logicalnot" unicode="&#xac;" horiz-adv-x="998" 
d="M832 375h-178v264h-527v161h705v-425z" />
    <glyph glyph-name="registered" unicode="&#xae;" horiz-adv-x="1610" 
d="M90 729q0 106 25.5 202.5t71.5 179.5t111 150.5t144 115t169.5 73.5t188.5 26t188.5 -26t169 -73.5t143.5 -115t111 -150.5t71.5 -179.5t25.5 -202.5t-25.5 -202.5t-71.5 -180t-111 -151t-143.5 -116t-169 -74.5t-188.5 -26t-188.5 26t-169.5 74.5t-144 116t-111 151
t-71.5 180t-25.5 202.5zM205 729q0 -134 47 -249t127.5 -200t189 -133.5t231.5 -48.5t231 48.5t189 133.5t127.5 200t46.5 249q0 133 -46.5 247.5t-127.5 199t-189 132.5t-231 48t-231.5 -48t-189 -132.5t-127.5 -199t-47 -247.5zM653 654v-338h-141v849h276q74 0 133.5 -16
t101.5 -47.5t64.5 -80t22.5 -112.5q0 -63 -32.5 -109.5t-95.5 -78.5q34 -14 57.5 -35t38 -47.5t21 -58t6.5 -66.5v-55q0 -38 3.5 -71t13.5 -56v-16h-145q-5 13 -8 33t-4.5 41t-1.5 40v30v53q0 72 -33.5 106.5t-113.5 34.5h-163zM653 782h156q32 1 61 9t51 23t35 37.5
t13 52.5q0 37 -9.5 62.5t-30.5 41.5t-55.5 23t-85.5 7h-135v-256z" />
    <glyph glyph-name="macron" unicode="&#xaf;" horiz-adv-x="848" 
d="M739 1313h-614v143h614v-143z" />
    <glyph glyph-name="macron" unicode="&#x2c9;" horiz-adv-x="848" 
d="M739 1313h-614v143h614v-143z" />
    <glyph glyph-name="degree" unicode="&#xb0;" horiz-adv-x="765" 
d="M130 1216q0 53 20.5 100.5t55 83t81 56t98.5 20.5t97.5 -20.5t79.5 -56t54 -83t20 -100.5q0 -54 -20 -100.5t-54 -81t-79.5 -54.5t-97.5 -20t-98.5 20t-81 54.5t-55 81t-20.5 100.5zM255 1216q0 -28 10.5 -51.5t28 -40.5t41 -26.5t50.5 -9.5t50.5 9.5t41 26.5t27 40.5
t9.5 51.5t-9.5 52.5t-27 42.5t-41 28t-50.5 10t-50.5 -10t-41 -28t-28 -42.5t-10.5 -52.5z" />
    <glyph glyph-name="plusminus" unicode="&#xb1;" horiz-adv-x="963" 
d="M579 855h296v-152h-296v-414h-158v414h-316v152h316v412h158v-412zM837 1h-701v151h701v-151z" />
    <glyph glyph-name="twosuperior" unicode="&#xb2;" horiz-adv-x="675" 
d="M599 667h-512v108l241 271q55 62 76 105.5t21 76.5q0 49 -24 79.5t-69 30.5q-58 0 -84.5 -38t-26.5 -95h-149q0 54 17.5 101.5t50.5 83t80.5 56.5t107.5 21q58 0 104 -16.5t77.5 -47.5t48 -75t16.5 -98q0 -40 -11 -75.5t-32 -70t-51 -69.5t-68 -75l-136 -145h323v-128z
" />
    <glyph glyph-name="threesuperior" unicode="&#xb3;" horiz-adv-x="675" 
d="M242 1125h72q57 0 84 30.5t27 78.5q0 44 -24 73.5t-77 29.5q-42 0 -70 -24.5t-28 -67.5h-149q0 51 19 91.5t52 69.5t78 44.5t96 15.5q56 0 102.5 -14.5t79.5 -43t51.5 -70.5t18.5 -97t-29.5 -100.5t-85.5 -70.5q65 -21 95 -68t30 -116q0 -56 -20 -99t-55.5 -72
t-83.5 -44.5t-104 -15.5q-48 0 -93.5 13.5t-80.5 42t-56.5 72.5t-21.5 105h150q0 -45 28.5 -75t79.5 -30q54 0 81.5 30t27.5 81q0 63 -32.5 89t-89.5 26h-72v116z" />
    <glyph glyph-name="acute" unicode="&#xb4;" horiz-adv-x="642" 
d="M316 1534h224l-268 -294h-149z" />
    <glyph glyph-name="mu" unicode="&#xb5;" horiz-adv-x="1021" 
d="M323 1082v-622q0 -103 13 -167.5t36 -100.5t54.5 -49t67.5 -13q81 0 128.5 35.5t73.5 98.5v818h178v-1082h-160l-8 101q-35 -57 -85.5 -89t-119.5 -32q-58 0 -101.5 16t-76.5 51v-463h-176v1498h176z" />
    <glyph glyph-name="paragraph" unicode="&#xb6;" horiz-adv-x="890" 
d="M551 0v520h-67q-100 0 -177 35t-129.5 97.5t-79.5 148.5t-27 187q0 100 27 186t79.5 148.5t129.5 98t177 35.5h245v-1456h-178z" />
    <glyph glyph-name="periodcentered" unicode="&#xb7;" horiz-adv-x="498" 
d="M138 729q0 48 26.5 80t79.5 32t80 -32t27 -80q0 -47 -27 -78.5t-80 -31.5t-79.5 31.5t-26.5 78.5z" />
    <glyph glyph-name="cedilla" unicode="&#xb8;" horiz-adv-x="469" 
d="M272 0l-10 -52q23 -5 45 -16.5t39.5 -32t28.5 -51t11 -73.5q0 -47 -16.5 -85.5t-48.5 -66.5t-80 -43t-112 -15l-6 107q56 0 92 23t36 76q0 25 -7.5 41.5t-23.5 27t-41 16.5t-60 10l28 134h125z" />
    <glyph glyph-name="onesuperior" unicode="&#xb9;" horiz-adv-x="633" 
d="M446 674h-149v601l-176 -57v128l308 117h17v-789z" />
    <glyph glyph-name="ordmasculine" unicode="&#xba;" horiz-adv-x="825" 
d="M118 1123q0 77 21 142t59 112t92.5 73t121.5 26q68 0 122.5 -26t92.5 -73t58.5 -112t20.5 -142v-80q0 -77 -20.5 -142t-58.5 -112t-92 -73t-122 -26t-122.5 26t-92.5 73t-59 112t-21 142v80zM273 1043q0 -46 8.5 -85t26 -67.5t44 -45t61.5 -16.5t61 16.5t43 45t25.5 67.5
t8.5 85v80q0 45 -8.5 84t-26 67.5t-43.5 45t-61 16.5t-61 -16.5t-43.5 -45t-26 -67.5t-8.5 -84v-80z" />
    <glyph glyph-name="guillemotright" unicode="&#xbb;" horiz-adv-x="856" 
d="M232 949l248 -389v-19l-248 -389h-131l211 398l-211 399h131zM535 949l248 -389v-19l-248 -389h-131l211 398l-211 399h131z" />
    <glyph glyph-name="onequarter" unicode="&#xbc;" horiz-adv-x="1305" 
d="M407 664h-149v601l-176 -57v128l308 117h17v-789zM401 118l-96 66l597 1138l97 -66zM1142 299h84v-130h-84v-169h-148v169h-308l-5 102l310 518h151v-490zM827 299h167v279l-10 -18z" />
    <glyph glyph-name="onehalf" unicode="&#xbd;" horiz-adv-x="1388" 
d="M364 118l-96 66l597 1138l97 -66zM406 664h-149v601l-176 -57v128l308 117h17v-789zM1278 0h-512v108l241 271q55 62 76 105.5t21 76.5q0 49 -24 79.5t-69 30.5q-58 0 -84.5 -38t-26.5 -95h-149q0 54 17.5 101.5t50.5 83t80.5 56.5t107.5 21q58 0 104 -16.5t77.5 -47.5
t48 -75t16.5 -98q0 -40 -11 -75.5t-32 -70t-51 -69.5t-68 -75l-136 -145h323v-128z" />
    <glyph glyph-name="threequarters" unicode="&#xbe;" horiz-adv-x="1379" 
d="M502 118l-96 66l597 1138l97 -66zM1211 299h84v-130h-84v-169h-148v169h-308l-5 102l310 518h151v-490zM896 299h167v279l-10 -18zM284 1126h72q57 0 84 30.5t27 78.5q0 44 -24 73.5t-77 29.5q-42 0 -70 -24.5t-28 -67.5h-149q0 51 19 91.5t52 69.5t78 44.5t96 15.5
q56 0 102.5 -14.5t79.5 -43t51.5 -70.5t18.5 -97t-29.5 -100.5t-85.5 -70.5q65 -21 95 -68t30 -116q0 -56 -20 -99t-55.5 -72t-83.5 -44.5t-104 -15.5q-48 0 -93.5 13.5t-80.5 42t-56.5 72.5t-21.5 105h150q0 -45 28.5 -75t79.5 -30q54 0 81.5 30t27.5 81q0 63 -32.5 89
t-89.5 26h-72v116z" />
    <glyph glyph-name="questiondown" unicode="&#xbf;" horiz-adv-x="863" 
d="M526 680q-1 -72 -9.5 -122t-26.5 -91t-46 -80t-67 -89q-25 -35 -48.5 -66.5t-41.5 -66t-29 -74.5t-11 -91q0 -109 45.5 -166.5t131.5 -57.5q32 0 63.5 12.5t57 38t41 63.5t15.5 90h176q-1 -85 -28 -152.5t-74.5 -115t-111.5 -72.5t-139 -25q-84 0 -149.5 25.5t-111 74.5
t-69 119.5t-23.5 160.5q0 68 18.5 128t47.5 113.5t65.5 102t72.5 92.5q42 51 58 112.5t16 136.5h177zM530 997q0 -45 -25 -76t-75 -31t-75.5 31t-25.5 76q0 44 25.5 74t75.5 30t75 -30t25 -74z" />
    <glyph glyph-name="AE" unicode="&#xc6;" horiz-adv-x="1663" 
d="M1616 0h-763l-13 353h-458l-168 -353h-216l739 1456h827v-152h-580l17 -471h495v-151h-490l19 -531h591v-151zM465 527h369l-25 723z" />
    <glyph glyph-name="multiply" unicode="&#xd7;" horiz-adv-x="964" 
d="M93 329l275 334l-277 337l113 123l272 -330l272 330l112 -123l-278 -337l276 -334l-113 -123l-270 327l-269 -327z" />
    <glyph glyph-name="Oslash" unicode="&#xd8;" horiz-adv-x="1231" 
d="M1104 600q0 -155 -34 -271t-97 -193.5t-153.5 -116.5t-203.5 -39q-146 0 -255 68l-73 -141h-132l114 217q-69 78 -107 196.5t-38 279.5v253q0 154 35.5 270.5t99.5 195t154 118t200 39.5q187 0 309 -108l78 148h130l-127 -243q48 -77 74 -181.5t26 -238.5v-253zM307 600
q0 -98 14 -172.5t41 -128.5l477 908q-39 54 -95.5 79t-129.5 25q-71 0 -127.5 -26t-96.5 -81.5t-61.5 -142t-21.5 -206.5v-255zM921 855q0 125 -23 217l-458 -874q36 -29 80.5 -42t95.5 -13q75 0 132 26t95.5 81.5t58 142t19.5 207.5v255z" />
    <glyph glyph-name="Thorn" unicode="&#xde;" horiz-adv-x="1055" 
d="M331 1456v-293h218q100 0 178 -32t130.5 -89t80 -135t27.5 -169q0 -92 -27.5 -170t-80 -134.5t-130.5 -88.5t-178 -32h-218v-313h-177v1456h177zM331 1012v-547h218q64 0 109 23t74 61.5t42.5 87t13.5 99.5q0 52 -13.5 101.5t-42.5 88t-74 62t-109 23.5h-217z" />
    <glyph glyph-name="germandbls" unicode="&#xdf;" horiz-adv-x="1069" 
d="M309 0h-176v1111q0 110 25 193t70 138.5t107.5 83.5t137.5 28q72 0 132 -20t103.5 -62t67.5 -105.5t24 -150.5q0 -54 -8 -94.5t-20 -73t-26.5 -59.5t-26.5 -53.5t-20 -54.5t-8 -62q0 -46 21.5 -83t53.5 -71t69.5 -68.5t69.5 -75t53.5 -90.5t21.5 -114q0 -86 -23 -149.5
t-66 -105t-103 -62t-134 -20.5q-35 0 -72 6t-71.5 16t-62.5 23t-44 27l39 155q13 -11 34.5 -24t47 -24.5t54 -19.5t56.5 -8q48 0 80 13.5t52 37.5t28.5 56t8.5 69q0 47 -21.5 85t-53.5 72.5t-70 69t-70 76t-53.5 92.5t-21.5 119q0 60 19 105.5t41.5 87t41.5 85.5t19 102
q0 100 -43 150.5t-110 50.5q-83 0 -128 -70.5t-45 -220.5v-1111z" />
    <glyph glyph-name="ae" unicode="&#xe6;" horiz-adv-x="1491" 
d="M1079 -20q-112 0 -196.5 45.5t-138.5 126.5q-22 -32 -55.5 -63t-78.5 -55t-102 -39t-127 -15q-72 0 -127.5 23t-93.5 65t-57.5 102t-19.5 134q0 157 96 244t283 87h177v85q0 107 -43.5 168.5t-123.5 61.5q-43 0 -78 -15.5t-60 -41.5t-38.5 -60.5t-13.5 -73.5l-175 19
q0 70 26.5 129.5t74.5 102.5t115.5 67.5t148.5 24.5q95 0 168 -38t117 -115q53 73 124.5 113t156.5 40q92 0 162.5 -34t118 -97.5t72 -153.5t24.5 -202v-118h-602q2 -77 18.5 -144t49 -116.5t82 -78t116.5 -28.5q51 0 90.5 10.5t71 26t56 34.5t45.5 36l59 -136
q-12 -13 -38 -33.5t-66 -40t-94.5 -33.5t-123.5 -14zM417 130q29 0 60 9.5t60 26t55.5 38t46.5 44.5v247h-175q-50 0 -88 -16t-64 -43t-39 -62t-13 -74q0 -36 9 -67t28.5 -54t49 -36t70.5 -13zM1038 950q-48 0 -86 -23.5t-66 -65.5t-46 -98.5t-24 -122.5h423v31
q0 57 -10.5 107.5t-34 88.5t-62 60.5t-94.5 22.5z" />
    <glyph glyph-name="eth" unicode="&#xf0;" horiz-adv-x="1051" 
d="M705 1302q102 -125 159.5 -293t57.5 -376v-98q0 -123 -30 -225.5t-83.5 -175.5t-127 -113.5t-160.5 -40.5q-89 0 -163.5 38t-127.5 103.5t-82.5 154.5t-29.5 191q0 115 29 209.5t80 161t120.5 103t150.5 36.5q66 0 122.5 -27.5t100.5 -72.5q-22 98 -61 176.5t-91 140.5
l-181 -143l-68 99l164 130q-59 49 -125.5 83.5t-137.5 57.5l54 159q198 -53 347 -190l159 126l68 -100zM746 635q0 15 -0.5 30.5t-1.5 29.5q-11 25 -29.5 48.5t-44 41.5t-57.5 29t-71 11q-58 0 -103.5 -25t-77.5 -71.5t-49 -113t-17 -148.5q0 -62 15 -122t44 -107.5t72 -77
t99 -29.5q51 0 92 30.5t69.5 84.5t44 128t15.5 161v100z" />
    <glyph glyph-name="divide" unicode="&#xf7;" horiz-adv-x="1024" 
d="M918 600h-839v184h839v-184zM396 1098q0 48 26.5 80t79.5 32t80 -32t27 -80q0 -47 -27 -78t-80 -31t-79.5 31t-26.5 78zM396 281q0 48 26.5 80t79.5 32t80 -32t27 -80q0 -46 -27 -77.5t-80 -31.5t-79.5 31.5t-26.5 77.5z" />
    <glyph glyph-name="oslash" unicode="&#xf8;" horiz-adv-x="1022" 
d="M95 591q0 127 32.5 222.5t89 159.5t132.5 96.5t163 32.5q91 0 170 -35l59 142h113l-82 -198q74 -63 117 -167.5t43 -252.5v-102q0 -126 -32.5 -221.5t-89 -159.5t-132.5 -96t-164 -32q-84 0 -157 29l-60 -144h-113l81 197q-78 62 -124 168.5t-46 258.5v102zM272 489
q0 -86 16.5 -150.5t46.5 -109.5l286 691q-25 14 -52.5 22t-56.5 8q-51 0 -95 -23t-76 -68t-50.5 -112t-18.5 -156v-102zM755 591q0 78 -14.5 139.5t-40.5 106.5l-283 -683q44 -23 97 -23q241 0 241 358v102z" />
    <glyph glyph-name="thorn" unicode="&#xfe;" horiz-adv-x="1041" 
d="M923 489q0 -257 -92.5 -383t-261.5 -126q-85 0 -146.5 31.5t-104.5 91.5v-519h-176v416h-1v1536h177v-563q42 63 103 96t145 33q87 0 153.5 -30t111.5 -92.5t68.5 -159.5t23.5 -230v-101zM747 590q0 182 -56 268.5t-180 86.5q-69 0 -116.5 -35.5t-76.5 -91.5v-563
q29 -55 75 -89.5t120 -34.5q121 0 177.5 88t56.5 270v101z" />
    <glyph glyph-name="Hbar" unicode="&#x126;" horiz-adv-x="1253" 
d="M1111 1167h110v-143h-110v-1024h-184v673h-586v-673h-183v1024h-111v143h111v289h183v-289h586v289h184v-289zM341 830h586v194h-586v-194z" />
    <glyph glyph-name="dotlessi" unicode="&#x131;" horiz-adv-x="481" 
d="M323 0h-177v1082h177v-1082z" />
    <glyph glyph-name="kgreenlandic" unicode="&#x138;" horiz-adv-x="1006" 
d="M400 461h-76v-461h-177v1082h177v-458h62l319 458h212l-379 -522l405 -560h-222z" />
    <glyph glyph-name="Lslash" unicode="&#x141;" horiz-adv-x="973" 
d="M341 849l207 79v-162l-207 -79v-530h571v-157h-755v618l-103 -39v162l103 39v676h184v-607z" />
    <glyph glyph-name="lslash" unicode="&#x142;" horiz-adv-x="513" 
d="M338 872l127 58v-162l-127 -58v-710h-177v630l-109 -49v162l109 49v744h177v-664z" />
    <glyph glyph-name="Eng" unicode="&#x14a;" horiz-adv-x="1227" 
d="M1085 1456v-1540q0 -172 -74.5 -262.5t-206.5 -90.5q-27 0 -49.5 4t-47.5 14l11 154q7 -3 19 -5.5t24.5 -4.5t23.5 -3t16 -1q48 0 73.5 51.5t25.5 143.5v84l-567 1095v-1095h-183v1456h183l567 -1094v1094h185z" />
    <glyph glyph-name="eng" unicode="&#x14b;" horiz-adv-x="1021" 
d="M296 1082l12 -145q45 78 110 121.5t149 43.5q70 0 127 -24t97 -75t62 -130.5t22 -190.5v-771q0 -170 -73 -259t-203 -89q-25 0 -47 4t-47 14l12 157q7 -3 19 -5.5t24.5 -4t23 -2.5t15.5 -1q47 0 73.5 47t26.5 139v767q0 75 -12 126.5t-35.5 82.5t-58.5 44.5t-82 13.5
q-69 0 -117 -32t-79 -86v-827h-177v1082h158z" />
    <glyph glyph-name="OE" unicode="&#x152;" horiz-adv-x="1693" 
d="M1533 0h-713q-56 -8 -116 -14.5t-123 -6.5q-106 0 -193 43.5t-149.5 122.5t-97 189t-34.5 242v304q0 132 34 242t96 189t149 122.5t193 43.5q63 0 124 -6.5t117 -14.5h703v-158h-590v-468h515v-157h-515v-516h600v-157zM581 131q44 0 86 3.5t83 9.5v1167
q-41 7 -83.5 10.5t-87.5 3.5q-68 0 -123 -28.5t-93.5 -84.5t-59 -138.5t-20.5 -191.5v-306q0 -109 21 -192t60 -139.5t94 -85t123 -28.5z" />
    <glyph glyph-name="oe" unicode="&#x153;" horiz-adv-x="1592" 
d="M102 551q0 118 27.5 218.5t79.5 174.5t127.5 116t172.5 42q110 0 192.5 -53t134.5 -146q55 94 134.5 146.5t169.5 52.5q97 0 168 -36t117 -100t68 -152.5t22 -194.5v-122h-588q2 -77 17.5 -144t45.5 -116.5t74 -78t104 -28.5q89 0 150.5 31.5t102.5 76.5l70 -126
q-20 -24 -49.5 -47.5t-69 -42.5t-90.5 -30.5t-114 -11.5q-112 0 -196 51t-138 142q-53 -90 -134 -141.5t-190 -51.5q-97 0 -173 41.5t-128 115t-79.5 174t-27.5 218.5v22zM279 529q0 -81 13 -153t41 -127t72 -87t105 -32t104.5 32t71.5 87t41 127t13 153v22q0 80 -13 152.5
t-41 127t-72 87t-105 32.5t-104.5 -32.5t-71.5 -87t-41 -127t-13 -152.5v-22zM1140 950q-40 0 -74.5 -23t-61.5 -63t-46 -95.5t-26 -119.5h406v26q0 54 -11 104t-35 88t-61.5 60.5t-90.5 22.5z" />
    <glyph glyph-name="longs" unicode="&#x17f;" horiz-adv-x="480" 
d="M152 0v1196q0 87 20 154.5t58 113.5t92.5 69.5t123.5 23.5q31 0 61 -6t62 -15l-22 -142q-14 5 -32 8t-40 3q-72 0 -109 -55.5t-37 -153.5v-1196h-177z" />
    <glyph glyph-name="florin" unicode="&#x192;" horiz-adv-x="634" 
d="M533 939h-157v-1028q0 -169 -73.5 -258.5t-203.5 -89.5q-26 0 -48 4t-46 14l12 147q6 -3 18 -5.5t24.5 -4t23.5 -2.5t16 -1q48 0 74 52t26 144v1028h-141v143h141v114q0 176 77.5 268.5t214.5 92.5q32 0 61.5 -6t61.5 -15l-21 -147q-14 5 -35.5 7.5t-43.5 2.5
q-72 0 -105 -52.5t-33 -150.5v-114h157v-143z" />
    <glyph glyph-name="Ohorn" unicode="&#x1a0;" horiz-adv-x="1215" 
d="M1082 600q0 -155 -34 -271t-97 -193.5t-153.5 -116.5t-203.5 -39q-110 0 -200 39t-155 116.5t-100.5 193.5t-35.5 271v253q0 154 35.5 270.5t99.5 195t154 118t200 39.5t198.5 -37t152.5 -112q66 18 94 86.5t28 178.5h159q0 -154 -52 -252t-154 -134q31 -71 47.5 -159
t16.5 -194v-253zM899 855q0 120 -20 206.5t-59 142t-96 81.5t-132 26q-71 0 -127.5 -26t-96.5 -81.5t-61.5 -142t-21.5 -206.5v-255q0 -121 22 -207.5t62 -142t97 -81.5t128 -26q75 0 132 26t95.5 81.5t58 142t19.5 207.5v255z" />
    <glyph glyph-name="ohorn" unicode="&#x1a1;" horiz-adv-x="1031" 
d="M95 591q0 127 32.5 222.5t89 159.5t132.5 96.5t163 32.5q91 0 168 -33.5t134 -100.5q29 9 47 29.5t27.5 50.5t13 68.5t3.5 84.5h140q0 -65 -9 -120t-28.5 -98t-51 -73.5t-76.5 -46.5q25 -56 38.5 -123.5t13.5 -148.5v-102q0 -126 -32.5 -221.5t-89 -159.5t-132.5 -96
t-164 -32t-164.5 32t-133 96t-89 159.5t-32.5 221.5v102zM272 489q0 -90 18.5 -157t51 -111.5t76.5 -67t96 -22.5q241 0 241 358v102q0 89 -18.5 156t-51 112t-77 68t-96.5 23q-51 0 -95 -23t-76 -68t-50.5 -112t-18.5 -156v-102z" />
    <glyph glyph-name="Uhorn" unicode="&#x1af;" horiz-adv-x="1246" 
d="M1025 1456v-212q51 6 85 28t54.5 59t28.5 89t8 118h149q0 -100 -18 -177.5t-57 -131.5t-100.5 -84.5t-149.5 -36.5v-678q0 -123 -37 -208.5t-99 -139.5t-143 -78t-170 -24q-94 0 -175.5 24t-141.5 78t-94.5 139.5t-34.5 208.5v1026h182v-1026q0 -85 19 -141.5t53.5 -90.5
t83 -48t108.5 -14t109 14t83.5 48t53.5 90.5t19 141.5v1026h184z" />
    <glyph glyph-name="uhorn" unicode="&#x1b0;" horiz-adv-x="1126" 
d="M1126 1169q0 -81 -12.5 -142t-43.5 -102.5t-83 -63.5t-131 -23v-838h-168l-4 95q-42 -55 -105.5 -85t-151.5 -30q-67 0 -122 22.5t-94 71t-60.5 125t-21.5 184.5v699h176v-701q0 -73 13.5 -120.5t35 -75t49 -38t54.5 -10.5q88 0 141 39t81 105v801h177v-130
q51 1 78.5 14.5t40.5 40t15.5 67t2.5 95.5h133z" />
    <glyph glyph-name="uni0237" unicode="&#x237;" horiz-adv-x="487" 
d="M339 1082v-1171q0 -170 -73 -259t-204 -89q-26 0 -47.5 4t-45.5 14l12 147q6 -3 18 -5.5t24 -4t23 -2.5t16 -1q48 0 74 52t26 144v1171h177z" />
    <glyph glyph-name="schwa" unicode="&#x259;" horiz-adv-x="954" 
d="M451 1103q98 0 175.5 -40t131.5 -112t82.5 -171.5t28.5 -217.5v-44q0 -79 -14.5 -149.5t-41 -130.5t-63 -108t-80 -81t-92 -51t-99.5 -17q-97 0 -168 35.5t-117 99.5t-68 152.5t-22 194.5v121h588q-2 77 -17.5 144t-45.5 117t-74 78.5t-104 28.5q-90 0 -151 -31.5
t-103 -76.5l-68 125q20 24 49 48t69 43t90.5 31t113.5 12zM479 132q40 0 75 23t62 63t45 95t26 120h-406v-26q0 -54 11 -104t35 -88t61.5 -60.5t90.5 -22.5z" />
    <glyph glyph-name="circumflex" unicode="&#x2c6;" horiz-adv-x="877" 
d="M689 1262v-10h-142l-120 170l-120 -170h-142v12l209 272h105z" />
    <glyph glyph-name="caron" unicode="&#x2c7;" horiz-adv-x="827" 
d="M406 1365l119 170h152v-10l-219 -274h-104l-216 274v10h148z" />
    <glyph glyph-name="breve" unicode="&#x2d8;" horiz-adv-x="874" 
d="M728 1495q0 -59 -20.5 -108t-59.5 -84.5t-94.5 -55.5t-124.5 -20t-124.5 20t-94.5 55.5t-60 84.5t-21 108h151q0 -30 8 -57t25.5 -47.5t46 -32.5t69.5 -12q40 0 68.5 12t46.5 32.5t26 47.5t8 57h150z" />
    <glyph glyph-name="dotaccent" unicode="&#x2d9;" horiz-adv-x="497" 
d="M141 1367q0 45 27.5 76t81.5 31t82 -31t28 -76t-28 -75t-82 -30t-81.5 30t-27.5 75z" />
    <glyph glyph-name="ring" unicode="&#x2da;" horiz-adv-x="685" 
d="M121 1408q0 43 16.5 81t45.5 66.5t68 44.5t85 16q45 0 84.5 -16t68.5 -44.5t45.5 -66.5t16.5 -81q0 -44 -16.5 -81t-45.5 -64.5t-68.5 -43t-84.5 -15.5q-46 0 -85 15.5t-68 43t-45.5 64.5t-16.5 81zM220 1408q0 -22 8.5 -43t24 -37t36.5 -25.5t47 -9.5q25 0 46.5 9.5
t37 25t24 36.5t8.5 44q0 24 -8.5 45t-24 37.5t-37 26t-46.5 9.5q-26 0 -47 -9.5t-36.5 -26t-24 -37.5t-8.5 -45z" />
    <glyph glyph-name="ogonek" unicode="&#x2db;" horiz-adv-x="519" 
d="M352 0q-27 -24 -52 -49t-45 -53t-32 -57.5t-12 -62.5t14 -52.5t49 -19.5q27 0 48 9t35 17l10 -121q-21 -15 -54.5 -29.5t-85.5 -14.5q-35 0 -66 12t-53.5 36t-35.5 59.5t-13 82.5q0 40 12 80t38.5 78.5t69.5 74t105 66.5z" />
    <glyph glyph-name="tilde" unicode="&#x2dc;" horiz-adv-x="875" 
d="M733 1500q0 -55 -14.5 -100t-39.5 -76.5t-59 -48.5t-73 -17q-42 0 -69.5 15t-50 32.5t-46 32.5t-58.5 15q-34 0 -56.5 -32t-22.5 -80l-115 7q0 55 14 100.5t39 78t59 50.5t73 18q34 0 61 -15t52 -33t51.5 -33t59.5 -15q34 0 57 32.5t23 80.5z" />
    <glyph glyph-name="hungarumlaut" unicode="&#x2dd;" horiz-adv-x="679" 
d="M519 1535h194l-223 -303h-157zM224 1535h185l-179 -303h-139z" />
    <glyph glyph-name="uni02F3" unicode="&#x2f3;" horiz-adv-x="539" 
d="M116 -242q0 36 12 67t33 53t48.5 34.5t58.5 12.5t58 -12.5t47 -34.5t31.5 -53t11.5 -67q0 -37 -11.5 -67t-31.5 -51.5t-47 -33t-58 -11.5t-58.5 11.5t-48.5 33t-33 51.5t-12 67zM194 -242q0 -35 22 -59t52 -24q29 0 50 24t21 59q0 36 -21 61t-50 25q-30 0 -52 -25
t-22 -61z" />
    <glyph glyph-name="gravecomb" unicode="&#x300;" horiz-adv-x="40" 
d="M-359 1240h-115l-104 295h164z" />
    <glyph glyph-name="acutecomb" unicode="&#x301;" horiz-adv-x="40" 
d="M-437 1536h162l-142 -293h-106z" />
    <glyph glyph-name="tildecomb" unicode="&#x303;" horiz-adv-x="40" 
d="M-129 1500q0 -55 -14.5 -100t-39.5 -76.5t-59 -48.5t-73 -17q-42 0 -69.5 15t-50 32.5t-46 32.5t-58.5 15q-34 0 -56.5 -32t-22.5 -80l-115 7q0 55 14 100.5t39 78t59 50.5t73 18q34 0 61 -15t52 -33t51.5 -33t59.5 -15q34 0 57 32.5t23 80.5z" />
    <glyph glyph-name="hook" unicode="&#x309;" horiz-adv-x="40" 
d="M-536 1241l-1 153q59 4 86.5 19.5t27.5 54.5q0 42 -36 60t-92 18l6 106q129 0 193 -51.5t64 -136.5q0 -38 -10.5 -65t-28 -45t-39.5 -28t-45 -14l-1 -71h-124z" />
    <glyph glyph-name="uni030F" unicode="&#x30f;" horiz-adv-x="40" 
d="M-394 1252h-158l-258 266h212zM-169 1252h-139l-206 266h194z" />
    <glyph glyph-name="dotbelow" unicode="&#x323;" horiz-adv-x="495" 
d="M-712 -245q0 45 27.5 76t81.5 31t82 -31t28 -76t-28 -75t-82 -30t-81.5 30t-27.5 75z" />
    <glyph glyph-name="tonos" unicode="&#x384;" horiz-adv-x="525" 
d="M237 1599h174l-116 -337h-112z" />
    <glyph glyph-name="dieresistonos" unicode="&#x385;" horiz-adv-x="927" 
d="M426 1672h176l-94 -264h-126zM102 1371q0 45 25 75.5t75 30.5q51 0 76 -30.5t25 -75.5t-25 -75t-76 -30q-50 0 -75 30t-25 75zM598 1369q0 44 25 75.5t75 31.5t75.5 -31t25.5 -76t-25.5 -75t-75.5 -30q-51 0 -75.5 30t-24.5 75z" />
    <glyph glyph-name="anoteleia" unicode="&#x387;" horiz-adv-x="499" 
d="M138 729q0 48 26.5 80t79.5 32t80 -32t27 -80q0 -47 -27 -78.5t-80 -31.5t-79.5 31.5t-26.5 78.5z" />
    <glyph glyph-name="Gamma" unicode="&#x393;" horiz-adv-x="999" 
d="M923 1298h-573v-1298h-184v1456h757v-158z" />
    <glyph glyph-name="Delta" unicode="&#x394;" horiz-adv-x="1258" 
d="M558 1456h160l480 -1456h-1156zM283 157h677l-325 1028z" />
    <glyph glyph-name="Delta" unicode="&#x2206;" horiz-adv-x="1258" 
d="M558 1456h160l480 -1456h-1156zM283 157h677l-325 1028z" />
    <glyph glyph-name="Theta" unicode="&#x398;" horiz-adv-x="1216" 
d="M825 660h-422v151h422v-151zM1089 600q0 -155 -34 -271t-97 -193.5t-153.5 -116.5t-203.5 -39q-110 0 -200 39t-155 116.5t-100.5 193.5t-35.5 271v253q0 154 35.5 270.5t99.5 195t154 118t200 39.5q113 0 203.5 -39.5t154.5 -118t98 -195t34 -270.5v-253zM906 855
q0 120 -20 206.5t-59 142t-96 81.5t-132 26q-71 0 -127.5 -26t-96.5 -81.5t-61.5 -142t-21.5 -206.5v-255q0 -121 22 -207.5t62 -142t97 -81.5t128 -26q75 0 132 26t95.5 81.5t58 142t19.5 207.5v255z" />
    <glyph glyph-name="Lambda" unicode="&#x39b;" horiz-adv-x="1172" 
d="M581 1135l-328 -1135h-197l445 1456h161l446 -1456h-198z" />
    <glyph glyph-name="Xi" unicode="&#x39e;" horiz-adv-x="1030" 
d="M122 157h792v-157h-792v157zM192 831h645v-157h-645v157zM123 1456h781v-158h-781v158z" />
    <glyph glyph-name="Pi" unicode="&#x3a0;" horiz-adv-x="1271" 
d="M1103 0h-184v1298h-570v-1298h-183v1456h937v-1456z" />
    <glyph glyph-name="Sigma" unicode="&#x3a3;" horiz-adv-x="1030" 
d="M669 718l-375 -561h650v-157h-864v143l393 586l-393 583v144h825v-158h-609l373 -556v-24z" />
    <glyph glyph-name="Phi" unicode="&#x3a6;" horiz-adv-x="1273" 
d="M733 1271h2q97 0 181.5 -40t147 -112t98.5 -173t36 -222q0 -122 -36 -222.5t-98.5 -173.5t-147 -113t-181.5 -40h-2v-175h-185v175h-6q-97 0 -181 40t-146.5 112t-98 172.5t-35.5 222.5q0 121 35.5 222t98 174t146.5 113t181 40h6v185h185v-185zM542 1112q-68 0 -120 -28
t-87 -79t-53.5 -123t-18.5 -160q0 -89 18.5 -160.5t53.5 -122t87 -78t120 -27.5h6v778h-6zM733 1112v-778h4q67 0 119 27.5t87.5 78.5t54 123t18.5 161q0 88 -18.5 159.5t-54 122.5t-87.5 78.5t-119 27.5h-4z" />
    <glyph glyph-name="Psi" unicode="&#x3a8;" horiz-adv-x="1229" 
d="M691 525q58 13 105 46t80 84t51 120t18 155v526h184v-526q0 -125 -32.5 -224.5t-90.5 -171.5t-138.5 -115.5t-176.5 -55.5v-363h-184v363q-93 13 -171 56.5t-133.5 115.5t-86.5 171t-31 224v526h183v-526q0 -85 17 -153t48.5 -119t75.5 -84t98 -47v929h184v-931z" />
    <glyph glyph-name="Omega" unicode="&#x3a9;" horiz-adv-x="1191" 
d="M635 162q114 27 176 168t62 396v115q0 117 -20 206t-57.5 149t-91 91t-120.5 31q-66 0 -119 -31t-90.5 -91t-57.5 -149t-20 -206v-115q0 -257 64 -397.5t180 -166.5v-162h-423v157h185q-45 50 -80.5 114.5t-60.5 138t-38 154t-13 162.5v113q0 142 34 259t96.5 201
t149.5 130.5t193 46.5t193.5 -46.5t150 -130.5t97 -201t34.5 -259v-113q0 -82 -13 -162.5t-38 -154t-60.5 -138t-80.5 -114.5h183v-157h-415v162z" />
    <glyph glyph-name="Omega" unicode="&#x2126;" horiz-adv-x="1191" 
d="M635 162q114 27 176 168t62 396v115q0 117 -20 206t-57.5 149t-91 91t-120.5 31q-66 0 -119 -31t-90.5 -91t-57.5 -149t-20 -206v-115q0 -257 64 -397.5t180 -166.5v-162h-423v157h185q-45 50 -80.5 114.5t-60.5 138t-38 154t-13 162.5v113q0 142 34 259t96.5 201
t149.5 130.5t193 46.5t193.5 -46.5t150 -130.5t97 -201t34.5 -259v-113q0 -82 -13 -162.5t-38 -154t-60.5 -138t-80.5 -114.5h183v-157h-415v162z" />
    <glyph glyph-name="alpha" unicode="&#x3b1;" horiz-adv-x="1013" 
d="M874 1082v-787q0 -46 5 -75t13.5 -45.5t19 -23t22.5 -6.5q7 0 13.5 1.5t10.5 3.5l21 -137q-28 -22 -54.5 -28t-55.5 -6q-57 0 -96.5 34.5t-58.5 114.5q-44 -72 -107 -110.5t-151 -38.5q-85 0 -151.5 38.5t-112 107.5t-69 165t-23.5 210v21q0 128 23.5 234.5t69 183.5
t112 120t152.5 43q85 0 147.5 -37t106.5 -106l14 123h149zM277 500q0 -77 12 -144.5t39 -117.5t70 -79t104 -29q73 0 120 46t76 118v1v488q-30 73 -77.5 120t-117.5 47q-62 0 -105 -34.5t-70 -93t-39 -136.5t-12 -165v-21z" />
    <glyph glyph-name="beta" unicode="&#x3b2;" horiz-adv-x="1059" 
d="M532 1476q83 0 150.5 -29t115 -81t73.5 -124t26 -159q0 -91 -42.5 -167t-117.5 -123q101 -45 156 -142.5t55 -226.5q0 -107 -29 -189.5t-80 -139t-121 -86t-152 -29.5q-65 0 -127 20t-113 63v-447h-177v1457q0 83 30.5 156.5t82.5 128t122 86.5t148 32zM528 858
q52 0 88.5 17t59.5 47.5t34 72.5t11 92q0 45 -12 87.5t-36 75.5t-59.5 53.5t-81.5 20.5q-44 0 -81.5 -19t-65.5 -52.5t-43.5 -79.5t-15.5 -100v-839q35 -48 91.5 -75.5t129.5 -27.5q53 0 95 21.5t71 60t44 91.5t15 116q0 52 -12.5 103.5t-36.5 92t-60 65.5t-82 25h-120v152
h67z" />
    <glyph glyph-name="gamma" unicode="&#x3b3;" horiz-adv-x="910" 
d="M464 311l218 771h179l-312 -1017v-481h-177v493l-313 1005h180z" />
    <glyph glyph-name="delta" unicode="&#x3b4;" horiz-adv-x="1021" 
d="M207 1269q0 68 21.5 122.5t63 93t101 59t135.5 20.5q66 0 116.5 -13.5t107.5 -41.5l1 -160q-17 9 -43 19.5t-56.5 19t-63.5 14.5t-66 6q-66 0 -102.5 -36t-36.5 -98q0 -21 7 -44t26.5 -47t54.5 -48.5t91 -48.5q180 -74 267 -213t87 -343v-21q0 -113 -27.5 -210
t-79.5 -168t-127.5 -111t-172.5 -40q-98 0 -174 40t-128 111t-79.5 168t-27.5 210v21q0 89 21.5 166.5t58.5 138.5t87 102t106 57l-1 5q-77 39 -122 109t-45 161zM280 509q0 -77 13.5 -146t41.5 -120.5t71.5 -82t104.5 -30.5q60 0 103.5 30.5t71.5 82t41 120.5t13 146v21
q0 64 -15.5 126.5t-45 114.5t-72.5 89t-97 50q-60 0 -103 -31t-71.5 -83t-42 -121t-13.5 -145v-21z" />
    <glyph glyph-name="epsilon" unicode="&#x3b5;" horiz-adv-x="964" 
d="M471 478q-96 0 -144 -41.5t-48 -132.5q0 -35 13.5 -67t39.5 -56t64 -38t87 -14q46 0 84 16t65 42t41.5 60.5t14.5 72.5h176q0 -89 -33 -153t-87 -105.5t-122.5 -61.5t-138.5 -20q-83 0 -153.5 22t-121.5 63.5t-79.5 101.5t-28.5 137q0 94 44.5 157t128.5 95
q-74 36 -115.5 97t-41.5 134q0 76 26 135t74 98.5t116 60t151 20.5q75 0 141.5 -22.5t116.5 -64t79 -101t29 -133.5h-176q0 36 -14.5 67t-40 54.5t-60.5 36.5t-75 13q-49 0 -85 -14t-59 -37t-34.5 -52.5t-11.5 -61.5q0 -35 10 -64.5t31.5 -50.5t55 -33t81.5 -12h178v-148
h-178z" />
    <glyph glyph-name="zeta" unicode="&#x3b6;" horiz-adv-x="948" 
d="M841 1456v-120l-279 -427q-48 -69 -86 -130.5t-64.5 -123t-40.5 -127.5t-14 -142q0 -48 5.5 -83t18 -60.5t32.5 -42.5t48 -29l115 -38q47 -16 88 -29.5t72 -35.5t48.5 -58.5t17.5 -97.5q-1 -40 -16 -83t-38 -82.5t-49.5 -73.5t-49.5 -56l-92 84q41 53 58.5 95.5
t17.5 87.5q0 35 -29.5 60t-97.5 47l-75 23q-71 23 -119 53.5t-77.5 74t-42 102t-12.5 137.5q0 55 13.5 123t43 146t75 163.5t110.5 174.5l231 316h-530v152h718z" />
    <glyph glyph-name="eta" unicode="&#x3b7;" horiz-adv-x="1021" 
d="M296 1082l10 -126q48 69 113.5 107.5t147.5 38.5q70 0 127 -20t97 -67.5t62 -125.5t22 -195v-1109h-176v1105q0 75 -12 125t-35.5 80t-58.5 42.5t-82 12.5q-72 0 -120 -41t-76 -109v-800h-178v1082h159z" />
    <glyph glyph-name="theta" unicode="&#x3b8;" horiz-adv-x="1017" 
d="M898 640q0 -169 -27.5 -293t-78.5 -205.5t-123 -121.5t-161 -40q-88 0 -160 40t-123.5 121.5t-79.5 205.5t-28 293v185q0 168 28 291t79 203t123 118.5t160 38.5q89 0 161 -38.5t123 -118.5t79 -203t28 -291v-185zM294 801h426v55q0 227 -54.5 347.5t-158.5 120.5
q-103 0 -158 -120.5t-55 -347.5v-55zM720 649h-426v-39q0 -113 14.5 -201.5t41.5 -150.5t67 -94.5t91 -32.5q52 0 92 32.5t66.5 94.5t40 150.5t13.5 201.5v39z" />
    <glyph glyph-name="iota" unicode="&#x3b9;" horiz-adv-x="613" 
d="M364 1082v-807q0 -42 8 -67t20.5 -39t29.5 -18.5t35 -4.5t40 4t30 8l-1 -151q-18 -6 -48 -12.5t-77 -6.5q-43 0 -81.5 14.5t-68 48t-46.5 89t-17 136.5v806h176z" />
    <glyph glyph-name="lambda" unicode="&#x3bb;" horiz-adv-x="995" 
d="M242 1518q46 0 80.5 -12.5t59.5 -35.5t42 -55t29 -72l367 -1109q15 -51 31.5 -70.5t42.5 -19.5q8 0 16 0.5t15 2.5l4 -152q-11 -4 -29 -8t-40 -4q-37 0 -66.5 7t-54.5 29t-47 61.5t-44 105.5l-189 570l-215 -756h-197l324 1020l-86 244q-18 57 -38 79.5t-52 22.5
q-8 0 -20 -0.5t-20 -1.5l1 142q13 5 40 8.5t46 3.5z" />
    <glyph glyph-name="xi" unicode="&#x3be;" horiz-adv-x="883" 
d="M754 1288q-45 15 -90 25.5t-95 10.5q-63 0 -108.5 -15.5t-75 -41.5t-43.5 -60t-14 -71q0 -49 14.5 -89.5t46 -69t81 -44.5t119.5 -16h121v-152h-121q-156 0 -234.5 -77.5t-78.5 -243.5q0 -67 18.5 -117.5t48.5 -87.5t68 -60.5t77 -36.5l98 -27q52 -15 94 -30.5t71 -39
t44.5 -58.5t15.5 -88q0 -40 -15 -82.5t-37.5 -81.5t-49 -72.5t-49.5 -55.5l-102 84q21 26 36.5 47.5t26.5 42.5t16.5 44t5.5 52q0 20 -7 34.5t-22.5 26t-40 21.5t-58.5 20l-46 13q-83 23 -151 55t-116.5 84t-75.5 128.5t-27 188.5q0 151 72 250.5t195 143.5
q-101 42 -158 118t-57 172q0 82 29.5 146t83.5 108t131 67t172 23q59 0 117.5 -11t95.5 -28z" />
    <glyph glyph-name="pi" unicode="&#x3c0;" horiz-adv-x="1066" 
d="M976 929h-121v-654q0 -42 8 -67t20.5 -39t29.5 -18.5t35 -4.5t40 4t30 8l-1 -151q-18 -6 -48 -12.5t-77 -6.5q-43 0 -81.5 14.5t-68 48t-46.5 89t-17 136.5v653h-313v-929h-177v929h-138v153h925v-153z" />
    <glyph glyph-name="rho" unicode="&#x3c1;" horiz-adv-x="1021" 
d="M915 500q0 -114 -23 -209.5t-67 -164.5t-109.5 -107.5t-150.5 -38.5q-81 0 -142.5 27.5t-107.5 79.5v-503h-178v993v1q0 129 30.5 227t82.5 164t121 99.5t146 33.5q100 0 175 -43t124.5 -120t74 -183.5t24.5 -234.5v-21zM739 521q0 87 -11.5 165t-38 136.5t-69 93
t-103.5 34.5q-53 0 -91.5 -35.5t-63 -90t-36 -120.5t-11.5 -127v-312q29 -60 75.5 -97t119.5 -37q61 0 104 29t71 79t41 117t13 144v21z" />
    <glyph glyph-name="sigma1" unicode="&#x3c2;" horiz-adv-x="967" 
d="M501 1102q79 0 144.5 -26.5t112.5 -76.5t73.5 -123.5t26.5 -166.5h-166q0 50 -11 94t-34.5 76.5t-59.5 51.5t-86 19q-60 0 -102 -34t-69 -89.5t-39.5 -125t-12.5 -139.5v-42q0 -137 69.5 -229t215.5 -140q49 -16 93 -31.5t77 -39.5t52.5 -62.5t19.5 -99.5q-1 -39 -16 -81
t-38 -82t-49.5 -73.5t-49.5 -55.5l-92 85q20 26 34.5 47t23.5 41.5t13.5 43.5t4.5 52q0 44 -30.5 65.5t-96.5 39.5q-204 52 -306 180t-102 340v42q0 109 26.5 207t77.5 172t125.5 117.5t170.5 43.5z" />
    <glyph glyph-name="sigma" unicode="&#x3c3;" horiz-adv-x="1021" 
d="M988 929h-232q78 -72 120 -177t42 -238v-23q0 -100 -27.5 -192t-79.5 -163t-128 -113.5t-173 -42.5t-172.5 41.5t-128 115t-80 174t-27.5 218.5v22q0 113 27.5 210t79.5 168.5t127.5 112t171.5 40.5h480v-153zM279 529q0 -81 13.5 -153t41.5 -126.5t71.5 -86.5t104.5 -32
t104.5 32t71.5 86.5t41.5 126.5t13.5 153v22q0 76 -13.5 144.5t-41.5 120.5t-72.5 82.5t-105.5 30.5q-60 0 -103.5 -30.5t-71 -82.5t-41 -120.5t-13.5 -144.5v-22z" />
    <glyph glyph-name="tau" unicode="&#x3c4;" horiz-adv-x="944" 
d="M852 932h-301v-663q0 -41 6.5 -67t17 -40.5t24 -20t28.5 -5.5q22 0 42 8.5t32 17.5l41 -130q-42 -32 -81.5 -42t-82.5 -10q-48 0 -85.5 16t-64 52t-40.5 93t-14 138v653h-285v150h763v-150z" />
    <glyph glyph-name="upsilon" unicode="&#x3c5;" horiz-adv-x="985" 
d="M313 1082v-656q0 -80 12 -136.5t33 -92t49.5 -51.5t62.5 -16q57 0 101.5 38.5t75 100t46.5 138.5t16 155q-3 136 -32.5 265.5t-72.5 254.5h184q39 -94 68 -223t29 -297q0 -116 -24 -221t-74.5 -185.5t-127 -128t-181.5 -47.5q-80 0 -143 26t-107.5 81t-68 139.5
t-23.5 201.5v654h177z" />
    <glyph glyph-name="phi" unicode="&#x3c6;" horiz-adv-x="1265" 
d="M536 -16q-123 14 -209 66t-140 130.5t-78 177.5t-24 206q0 168 52 299.5t162 218.5l97 -133q-37 -39 -61.5 -85t-40 -96t-23 -102t-9.5 -102q0 -69 14.5 -138t47.5 -127t85 -101t127 -59v716q0 52 15.5 94t44.5 71.5t70.5 45.5t92.5 16q85 0 161 -40.5t133.5 -112.5
t91.5 -170.5t34 -214.5q0 -103 -25 -198t-80.5 -171t-144.5 -126.5t-217 -64.5v-462h-176v462zM712 138q80 15 135.5 56t90 97t49.5 121.5t15 131.5q-2 73 -17.5 142t-45.5 123t-75 87t-105 33q-25 0 -36 -21t-11 -47v-723z" />
    <glyph glyph-name="psi" unicode="&#x3c8;" horiz-adv-x="1255" 
d="M703 1082v-944q79 16 134.5 59.5t90 102.5t50 128.5t15.5 138.5q-3 134 -31.5 263t-70.5 252h183q19 -46 36 -101t30.5 -119.5t21.5 -138t8 -156.5q0 -108 -24.5 -208t-79.5 -179t-144.5 -131t-218.5 -65v-456h-176v458q-101 13 -182 55.5t-137.5 117.5t-86.5 183.5
t-30 253.5v486h178v-488q0 -108 19 -188t53.5 -135t82 -87t103.5 -45v943h176z" />
    <glyph glyph-name="omega" unicode="&#x3c9;" horiz-adv-x="1457" 
d="M415 1082q-51 -125 -84 -255t-37 -267q0 -87 9 -165t29 -137t52.5 -93.5t79.5 -34.5q37 0 68.5 18.5t55 59t36.5 105.5t13 158v299h178v-299q0 -93 13 -158t36.5 -105.5t55 -59t68.5 -18.5q47 0 79.5 34.5t52.5 93t29 136.5t9 166q-4 137 -37 267t-84 255h185
q22 -47 42.5 -102.5t36 -121t24.5 -140t9 -158.5q0 -115 -17 -220t-56.5 -185t-104 -127.5t-158.5 -47.5q-101 0 -169 59t-103 174q-35 -115 -103.5 -174t-168.5 -59q-94 0 -158.5 47.5t-104 127.5t-56.5 185t-17 220q0 169 33.5 298.5t78.5 223.5h185z" />
    <glyph glyph-name="uni03D1" unicode="&#x3d1;" horiz-adv-x="1039" 
d="M983 627q-53 -24 -113 -31v-161q0 -111 -26.5 -196t-74.5 -142.5t-116 -87t-150 -29.5q-87 0 -158 32t-121.5 91t-78 143.5t-27.5 188.5v334l177 2v-336q0 -143 55 -220.5t153 -77.5q90 0 140.5 72.5t50.5 225.5v168q-91 19 -165.5 65t-127 113.5t-81.5 152.5t-29 182v15
q0 83 21.5 147.5t60.5 109t92.5 67.5t116.5 23q66 0 119.5 -24.5t91 -72t57.5 -117t20 -159.5v-352q28 4 54.5 9.5t52.5 13.5zM469 1114q0 -59 15 -113.5t43.5 -100t70.5 -80t96 -52.5v337q0 113 -28 164t-84 51q-25 0 -46 -10.5t-36 -33t-23 -58.5t-8 -87v-17z" />
    <glyph glyph-name="uni03D2" unicode="&#x3d2;" horiz-adv-x="953" 
d="M478 799l185 482q19 55 40 91t44.5 57.5t50.5 30t60 8.5q29 0 54 -5.5t54 -21.5l-33 -151q-4 3 -15.5 5.5t-22.5 2.5q-24 0 -42.5 -16.5t-29.5 -62.5l-254 -644v-575h-183v577l-252 642q-12 46 -30.5 62.5t-41.5 16.5q-12 0 -24 -2.5t-16 -5.5l-31 150q28 16 53 22t54 6
q30 0 57 -7.5t52 -28t47.5 -57t42.5 -93.5z" />
    <glyph glyph-name="uni03D6" unicode="&#x3d6;" horiz-adv-x="1390" 
d="M1330 929h-112q23 -78 38 -169t15 -200q0 -115 -15.5 -220t-51 -185t-93 -127.5t-141.5 -47.5q-100 0 -168 59t-103 174q-34 -115 -102 -174t-168 -59q-84 0 -142 47.5t-93 127.5t-50.5 185t-15.5 220q0 109 15 200t38 169h-93v153h1242v-153zM1093 560q-2 95 -19.5 187
t-45.5 182h-658q-28 -90 -45.5 -182t-19.5 -187q0 -87 7 -165t23 -137t41.5 -93.5t61.5 -34.5q37 0 68.5 18.5t55 59t36.5 105.5t13 158v251h178v-251q0 -93 13 -158t36 -105.5t54.5 -59t69.5 -18.5q36 0 61 34.5t40.5 93t22.5 136.5t7 166z" />
    <glyph glyph-name="uni0402" unicode="&#x402;" horiz-adv-x="1333" 
d="M1003 1298h-424v-452q59 20 121 32.5t108 12.5q105 0 187 -30.5t139 -89t86.5 -143.5t29.5 -195q0 -104 -27 -186.5t-80.5 -139.5t-133 -87.5t-183.5 -30.5l-2 150q70 0 116.5 21t74.5 59.5t39.5 92.5t11.5 120q-2 141 -64 216.5t-195 75.5q-58 0 -116 -11t-112 -31v-682
h-185v1298h-343v158h952v-158z" />
    <glyph glyph-name="uni0404" unicode="&#x404;" horiz-adv-x="1208" 
d="M1074 462q-10 -103 -42 -191.5t-89 -153t-141 -101t-197 -36.5q-110 0 -199 48t-153 136.5t-98.5 212.5t-34.5 277v145q0 153 35 278t100 213.5t158 137t209 48.5q106 0 186 -36t136 -100.5t88 -154t42 -197.5h-184q-9 76 -26.5 137t-49 104t-78.5 66t-114 23
q-79 0 -138.5 -36.5t-99 -103t-59.5 -159.5t-21 -206h467v-157h-467v-2q0 -107 17 -201t53.5 -164.5t93.5 -111t137 -40.5q75 0 125 22t82 63.5t49.5 102t27.5 137.5h185z" />
    <glyph glyph-name="uni0409" unicode="&#x409;" horiz-adv-x="1888" 
d="M1093 1456v-565h292q101 0 179 -33.5t131 -93t80.5 -141t27.5 -178.5q0 -96 -27.5 -177.5t-80.5 -141t-131 -93t-179 -33.5h-476v1298h-407l3 -524q1 -199 -21 -344.5t-70 -241t-124.5 -142t-184.5 -46.5h-45v157h35q61 0 104.5 33.5t71.5 107.5t40.5 191.5t11.5 284.5
l-3 682h773zM1093 733v-576h292q62 0 106.5 24.5t73 65t42 93t13.5 107.5t-13.5 106.5t-42 91.5t-73 64t-106.5 24h-292z" />
    <glyph glyph-name="uni040A" unicode="&#x40a;" horiz-adv-x="1899" 
d="M350 825h569v631h184v-610h292q101 0 179 -30.5t131 -86t80.5 -132.5t27.5 -169q0 -93 -27.5 -171.5t-80.5 -135.5t-131 -89t-179 -32h-476v668h-569v-668h-184v1456h184v-631zM1103 689v-523h292q62 0 106.5 21.5t73 58t42 84.5t13.5 100q0 51 -13.5 98t-42 83t-73 57
t-106.5 21h-292z" />
    <glyph glyph-name="uni040B" unicode="&#x40b;" horiz-adv-x="1445" 
d="M1024 1298h-433v-428q57 17 120 26.5t149 9.5q98 0 175.5 -24.5t131.5 -78t83 -139.5t29 -209v-455h-185v455q0 85 -14.5 141.5t-43.5 90t-73 47.5t-103 14q-73 0 -139.5 -10.5t-129.5 -27.5v-710h-184v1298h-332v158h949v-158z" />
    <glyph glyph-name="uni040F" unicode="&#x40f;" horiz-adv-x="1272" 
d="M165 1456h184v-1299h569v1299h184v-1456h-370v-359h-185v359h-382v1456z" />
    <glyph glyph-name="uni0411" unicode="&#x411;" horiz-adv-x="1126" 
d="M908 1298h-573v-436h292q102 0 180 -30.5t131.5 -86.5t81 -134.5t27.5 -175.5q0 -96 -27.5 -176t-81 -137.5t-132 -89.5t-179.5 -32h-476v1456h757v-158zM335 704v-547h292q63 0 107.5 23t73 62t42 89.5t13.5 105.5t-13.5 103.5t-42 85t-73 57.5t-107.5 21h-292z" />
    <glyph glyph-name="uni0414" unicode="&#x414;" horiz-adv-x="1352" 
d="M1114 157h171l-2 -514h-183v357h-860v-358h-184l-1 515h107q22 28 50.5 80.5t54.5 137.5t45 206.5t21 288.5l28 586h753v-1299zM518 870q-7 -251 -50 -428t-109 -285h571v1141h-392z" />
    <glyph glyph-name="uni0416" unicode="&#x416;" horiz-adv-x="1620" 
d="M1040 664h-127v-664h-184v664h-135l-322 -664h-228l403 773l-371 683h216l302 -632h135v632h184v-632h128l302 632h215l-370 -682l402 -774h-227z" />
    <glyph glyph-name="uni0417" unicode="&#x417;" horiz-adv-x="1060" 
d="M531 821q64 0 109 18t73.5 50.5t42 77t13.5 98.5q0 52 -14.5 98t-45.5 80.5t-78 54.5t-113 20q-50 0 -92.5 -18.5t-73.5 -51t-49 -77.5t-18 -98h-183q0 93 33 168t90 127t132.5 80t160.5 28q99 0 179.5 -26.5t137 -79t87.5 -129.5t31 -179q0 -101 -53 -184t-146 -131
q105 -42 161 -127.5t56 -213.5q0 -102 -33.5 -181.5t-94 -133.5t-143.5 -82.5t-182 -28.5q-80 0 -157.5 24.5t-139 76t-99.5 131.5t-38 192h183q0 -55 18 -104t51 -85.5t79 -57.5t103 -21q64 0 114.5 20t85 55.5t52.5 84t18 106.5q0 135 -65.5 198t-191.5 63h-136v158h136z
" />
    <glyph glyph-name="uni0418" unicode="&#x418;" horiz-adv-x="1268" 
d="M916 1456h183v-1456h-183v1122l-567 -1122h-184v1456h184v-1122z" />
    <glyph glyph-name="uni041B" unicode="&#x41b;" horiz-adv-x="1261" 
d="M1093 1456v-1456h-184v1298h-405l-12 -524q-4 -199 -25.5 -344.5t-66 -241t-116 -142t-175.5 -46.5h-47v157h34q58 0 97 34t64 107.5t37 191t16 284.5l16 682h767z" />
    <glyph glyph-name="uni0423" unicode="&#x423;" horiz-adv-x="1122" 
d="M578 640l260 816h212l-419 -1213q-20 -51 -42.5 -98.5t-55.5 -84.5t-80.5 -59t-119.5 -22q-11 0 -24.5 1t-26 2t-22.5 2.5t-14 3.5l4 152q4 -1 15 -1.5t23 -1t23.5 -1t17.5 -0.5q33 0 54.5 13.5t36 35t24.5 49t19 55.5l29 87l-400 1080h204z" />
    <glyph glyph-name="uni0424" unicode="&#x424;" horiz-adv-x="1387" 
d="M787 1311h22q103 0 193.5 -43t157.5 -120.5t105.5 -185t38.5 -237.5t-38.5 -238t-105.5 -186t-157.5 -121t-193.5 -43h-22v-197h-176v197h-25q-103 0 -193 43t-157 120t-105.5 185t-38.5 238t38.5 238t105.5 186t157 121t193 43h25v205h176v-205zM586 1159
q-78 0 -137.5 -31.5t-100 -88.5t-61 -137.5t-20.5 -178.5q0 -99 20.5 -179t61 -137t100 -88t137.5 -31h25v871h-25zM787 1159v-871h24q77 0 136 31.5t99.5 88.5t61.5 137.5t21 179.5q0 98 -21 178t-61.5 137t-99.5 88t-136 31h-24z" />
    <glyph glyph-name="uni0426" unicode="&#x426;" horiz-adv-x="1309" 
d="M166 1456h184v-1299h569v1299h183v-1295h132l-18 -512h-164v351h-886v1456z" />
    <glyph glyph-name="uni0427" unicode="&#x427;" horiz-adv-x="1230" 
d="M1063 1456v-1456h-184v602q-35 -12 -70 -21.5t-74 -16.5t-83 -10.5t-96 -3.5q-98 0 -175.5 24.5t-131 78t-82 139.5t-28.5 209v455h184v-455q0 -85 14.5 -141.5t43.5 -90t72.5 -47.5t102.5 -14q88 0 168 14.5t155 38.5v695h184z" />
    <glyph glyph-name="uni0428" unicode="&#x428;" horiz-adv-x="1668" 
d="M350 1456v-1299h395v1299h182v-1299h392v1299h184v-1456h-1337v1456h184z" />
    <glyph glyph-name="uni0429" unicode="&#x429;" horiz-adv-x="1724" 
d="M350 1456v-1299h395v1299h182v-1299h392v1299h184v-1304h127l-18 -503h-157v351h-1289v1456h184z" />
    <glyph glyph-name="uni042A" unicode="&#x42a;" horiz-adv-x="1335" 
d="M43 1456h501v-594h292q102 0 180 -30.5t131.5 -86.5t81 -134.5t27.5 -175.5q0 -96 -27.5 -176t-81 -137.5t-132 -89.5t-179.5 -32h-475v1304h-318v152zM544 704v-547h292q63 0 107.5 23t73 62t42 89.5t13.5 105.5t-13.5 103.5t-42 85t-73 57.5t-107.5 21h-292z" />
    <glyph glyph-name="uni042B" unicode="&#x42b;" horiz-adv-x="1547" 
d="M350 862h292q102 0 180 -30.5t131.5 -86.5t81 -134.5t27.5 -175.5q0 -96 -27.5 -176t-81 -137.5t-132 -89.5t-179.5 -32h-475v1456h183v-594zM1373 0h-183v1456h183v-1456zM350 704v-547h292q63 0 107.5 23t73 62t42 89.5t13.5 105.5t-13.5 103.5t-42 85t-73 57.5
t-107.5 21h-292z" />
    <glyph glyph-name="uni042C" unicode="&#x42c;" horiz-adv-x="1129" 
d="M335 862h292q102 0 180 -30.5t131.5 -86.5t81 -134.5t27.5 -175.5q0 -96 -27.5 -176t-81 -137.5t-132 -89.5t-179.5 -32h-475v1456h183v-594zM335 704v-547h292q63 0 107.5 23t73 62t42 89.5t13.5 105.5t-13.5 103.5t-42 85t-73 57.5t-107.5 21h-292z" />
    <glyph glyph-name="uni042D" unicode="&#x42d;" horiz-adv-x="1208" 
d="M330 462q10 -77 27 -137.5t49 -102t82.5 -63.5t125.5 -22q79 0 136 40t93.5 109t53.5 162t18 199h-471v158h471q0 115 -20 209.5t-60 162t-99.5 104.5t-138.5 37q-67 0 -114 -23t-78 -66t-48.5 -104t-26.5 -137h-185q10 108 42 197.5t88 154t136 100.5t186 36
q116 0 209 -48.5t158 -137t100 -213.5t35 -278v-145q0 -153 -34.5 -277t-98.5 -212.5t-153.5 -136.5t-198.5 -48q-113 0 -197 36.5t-141 101t-89 153t-42 191.5h185z" />
    <glyph glyph-name="uni042E" unicode="&#x42e;" horiz-adv-x="1568" 
d="M1492 600q0 -155 -34 -271t-97 -193.5t-153.5 -116.5t-203.5 -39q-110 0 -200 39t-155 116.5t-100.5 193.5t-35.5 271v37h-164v-637h-183v1456h183v-668h164v65q0 154 35.5 270.5t99.5 195t154 118t200 39.5q113 0 203.5 -39.5t154.5 -118t98 -195t34 -270.5v-253z
M1309 855q0 120 -20 206.5t-59 142t-96 81.5t-132 26q-71 0 -127.5 -26t-96.5 -81.5t-61.5 -142t-21.5 -206.5v-255q0 -121 22 -207.5t62 -142t97 -81.5t128 -26q75 0 132 26t95.5 81.5t58 142t19.5 207.5v255z" />
    <glyph glyph-name="uni042F" unicode="&#x42f;" horiz-adv-x="1152" 
d="M792 0v567h-252l-251 -567h-195l285 623q-116 54 -177 152.5t-61 241.5q0 106 30.5 187.5t87 137.5t137.5 85t182 29h398v-1456h-184zM325 1017q0 -63 16 -116.5t48 -93t80 -61.5t113 -22h210v574h-214q-63 0 -110.5 -19.5t-79 -56.5t-47.5 -89t-16 -116z" />
    <glyph glyph-name="uni0431" unicode="&#x431;" horiz-adv-x="992" 
d="M544 1020q89 0 158.5 -37t117 -103t72.5 -155.5t25 -194.5v-23q0 -113 -27 -209.5t-79.5 -167t-128.5 -110.5t-173 -40t-172.5 40t-128 110.5t-80 167t-27.5 209.5v23v7v69q0 184 30.5 322t85 234t130 152t166.5 77q43 10 80 22t64 30t42 44.5t15 65.5h143
q0 -98 -27 -155t-70.5 -89t-98 -47.5t-110.5 -30.5q-54 -14 -103 -39.5t-88.5 -68.5t-68 -106t-41.5 -153q54 69 127.5 112.5t166.5 43.5zM508 868q-60 0 -103.5 -27.5t-71.5 -74t-41 -108t-13 -128.5v-23q0 -76 13 -144.5t41 -120t71.5 -82t104.5 -30.5t104.5 30.5t72 82
t42 120t13.5 144.5v23q0 67 -13.5 128.5t-42 108t-72.5 74t-105 27.5z" />
    <glyph glyph-name="uni0432" unicode="&#x432;" horiz-adv-x="1031" 
d="M148 0v1082h363q88 0 159 -18t120.5 -54.5t76 -92.5t26.5 -132q0 -75 -39 -135t-114 -92q45 -12 79.5 -36.5t58 -57.5t35 -73.5t11.5 -83.5q0 -77 -24.5 -134.5t-70.5 -95.5t-112 -57.5t-149 -19.5h-420zM324 475v-326h244q92 0 135.5 43t43.5 121q0 77 -43.5 119.5
t-135.5 42.5h-244zM324 623h185q207 0 207 152q0 157 -205 157h-187v-309z" />
    <glyph glyph-name="uni0433" unicode="&#x433;" horiz-adv-x="760" 
d="M727 929h-403v-929h-178v1082h581v-153z" />
    <glyph glyph-name="uni0434" unicode="&#x434;" horiz-adv-x="1098" 
d="M130 151q29 39 54 80t45 99.5t34 141.5t21 204l13 406h604v-931h126v-469h-177v318h-615v-318h-178l1 469h72zM461 676q-5 -95 -17 -173.5t-29.5 -143t-40 -116t-49.5 -92.5h400v760h-256z" />
    <glyph glyph-name="uni0436" unicode="&#x436;" horiz-adv-x="1356" 
d="M867 470h-103v-470h-176v470h-103l-226 -470h-222l311 564l-284 518h213l210 -448h101v448h176v-448h99l213 448h213l-285 -519l311 -563h-223z" />
    <glyph glyph-name="uni0437" unicode="&#x437;" horiz-adv-x="914" 
d="M796 787q0 -73 -37 -134t-105 -97q78 -32 118.5 -95t40.5 -157q0 -77 -26 -137t-73.5 -101t-113.5 -63t-145 -22q-67 0 -132.5 20t-117 61t-83 105t-31.5 153h175q0 -38 13.5 -72.5t38 -61t59.5 -42.5t78 -16q45 0 79 14.5t56.5 38.5t34 56t11.5 67q0 91 -40.5 130.5
t-127.5 39.5h-162v156h162q43 0 72 11t47 31.5t25.5 49.5t7.5 64q0 32 -9 61.5t-28.5 52.5t-50.5 37t-76 14q-37 0 -69 -13t-56 -36.5t-37.5 -54.5t-13.5 -67h-175q0 74 28 133.5t75.5 101t111.5 64t136 22.5q79 0 142 -20.5t107 -60t67.5 -98.5t23.5 -135z" />
    <glyph glyph-name="uni0438" unicode="&#x438;" horiz-adv-x="1043" 
d="M717 1082h176v-1082h-176v789l-392 -789h-177v1082h177v-790z" />
    <glyph glyph-name="uni043A" unicode="&#x43a;" horiz-adv-x="983" 
d="M426 461h-100v-461h-177v1082h177v-458h88l295 458h211l-361 -515l387 -567h-222z" />
    <glyph glyph-name="uni043B" unicode="&#x43b;" horiz-adv-x="1044" 
d="M895 1082v-1082h-177v929h-284l-10 -310q-6 -154 -23 -270t-53 -193.5t-95.5 -116.5t-150.5 -39h-49l4 165l34 1q45 0 73.5 25.5t45.5 80t24.5 140.5t12.5 207l17 463h631z" />
    <glyph glyph-name="uni043C" unicode="&#x43c;" horiz-adv-x="1323" 
d="M663 245l290 837h220v-1082h-176v746l-273 -746h-121l-279 764v-764h-176v1082h228z" />
    <glyph glyph-name="uni043D" unicode="&#x43d;" horiz-adv-x="1042" 
d="M892 0h-176v462h-390v-462h-178v1082h178v-469h390v469h176v-1082z" />
    <glyph glyph-name="uni043F" unicode="&#x43f;" horiz-adv-x="1043" 
d="M893 0h-176v929h-391v-929h-178v1082h745v-1082z" />
    <glyph glyph-name="uni0442" unicode="&#x442;" horiz-adv-x="870" 
d="M816 932h-295v-932h-176v932h-291v150h762v-150z" />
    <glyph glyph-name="uni0444" unicode="&#x444;" horiz-adv-x="1288" 
d="M100 521q0 128 21 234.5t62.5 183.5t103.5 120t144 43q33 0 61.5 -5.5t54.5 -16.5v456h177v-462q28 14 60.5 21t70.5 7q83 0 145 -43t103.5 -120t62.5 -183.5t21 -234.5v-21q0 -114 -21 -210t-62.5 -165t-103.5 -107.5t-143 -38.5q-76 0 -133 26v-421h-177v416
q-26 -10 -55 -15.5t-62 -5.5q-81 0 -142.5 38.5t-103 107.5t-63 165t-21.5 210v21zM1011 521q0 87 -11.5 165t-36.5 136.5t-65 93t-97 34.5q-23 0 -42 -4t-35 -11v-793q31 -12 79 -12q56 0 95.5 29t64.5 79t36.5 117.5t11.5 144.5v21zM277 500q0 -77 10 -144.5t33 -117.5
t61 -79t95 -29q40 0 71 11v797q-15 5 -32 8.5t-37 3.5q-57 0 -96 -34.5t-62 -93t-33 -136.5t-10 -165v-21z" />
    <glyph glyph-name="uni0446" unicode="&#x446;" horiz-adv-x="1074" 
d="M148 1082h178v-931h391v931h176v-931h114l-18 -472h-157v321h-684v1082z" />
    <glyph glyph-name="uni0447" unicode="&#x447;" horiz-adv-x="982" 
d="M834 0h-178v388q-45 -13 -92.5 -20.5t-106.5 -7.5q-79 0 -144 24.5t-111.5 75t-72 127t-25.5 180.5v316h177v-316q0 -134 46.5 -194.5t129.5 -60.5q57 0 105 8t94 22v540h178v-1082z" />
    <glyph glyph-name="uni0448" unicode="&#x448;" horiz-adv-x="1441" 
d="M326 1082v-931h305v931h176v-931h306v931h177v-1082h-1142v1082h178z" />
    <glyph glyph-name="uni0449" unicode="&#x449;" horiz-adv-x="1480" 
d="M315 1082v-931h305v931h176v-931h306v931h177v-930h135l-18 -473h-156v321h-1103v1082h178z" />
    <glyph glyph-name="uni044A" unicode="&#x44a;" horiz-adv-x="1102" 
d="M44 1082h438v-373h220q84 0 147.5 -26.5t107 -73t65.5 -111t22 -140.5q0 -75 -22 -140.5t-65.5 -113.5t-107 -76t-147.5 -28h-396v930h-262v152zM482 558v-407h220q46 0 77.5 17t51 45t28 64t8.5 74q0 36 -8.5 73t-28 67t-51 48.5t-77.5 18.5h-220z" />
    <glyph glyph-name="uni044B" unicode="&#x44b;" horiz-adv-x="1392" 
d="M324 709h220q84 0 147.5 -26.5t107 -73t65.5 -111t22 -140.5q0 -75 -22 -140.5t-65.5 -113.5t-107 -76t-147.5 -28h-396v1082h176v-373zM1216 0h-177v1082h177v-1082zM324 558v-407h220q46 0 77.5 17t51 45t28 64t8.5 74q0 36 -8.5 73t-28 67t-51 48.5t-77.5 18.5h-220z
" />
    <glyph glyph-name="uni044C" unicode="&#x44c;" horiz-adv-x="979" 
d="M324 709h220q84 0 147.5 -26.5t107 -73t65.5 -111t22 -140.5q0 -75 -22 -140.5t-65.5 -113.5t-107 -76t-147.5 -28h-396v1082h176v-373zM324 558v-407h220q46 0 77.5 17t51 45t28 64t8.5 74q0 36 -8.5 73t-28 67t-51 48.5t-77.5 18.5h-220z" />
    <glyph glyph-name="uni044D" unicode="&#x44d;" horiz-adv-x="967" 
d="M458 950q-36 0 -70.5 -15.5t-61 -44t-42.5 -67.5t-16 -85h-168q0 73 29.5 139t79 116t114.5 79.5t135 29.5q96 0 170.5 -43.5t125.5 -117.5t77 -172t26 -207v-42q0 -109 -26.5 -207t-77.5 -172t-125.5 -117.5t-170.5 -43.5q-78 0 -143.5 30t-113 82.5t-74 124
t-26.5 154.5h168q0 -50 14 -94t39.5 -76.5t60 -51.5t75.5 -19q55 0 95.5 29.5t67.5 77.5t41.5 110t18.5 128h-315v152h313q-5 63 -20 121t-41.5 103t-66 72t-92.5 27z" />
    <glyph glyph-name="uni044E" unicode="&#x44e;" horiz-adv-x="1447" 
d="M325 623h198q4 119 38 208.5t90 149.5t130 90.5t158 30.5q88 0 165 -32.5t133.5 -96.5t89 -159.5t32.5 -222.5v-102q0 -126 -32.5 -221.5t-89 -159.5t-132.5 -96t-164 -32q-86 0 -161.5 31t-132 92.5t-90 154t-35.5 214.5h-197v-472h-177v1082h177v-459zM699 489
q0 -90 18.5 -157t51 -111.5t76.5 -67t96 -22.5q241 0 241 358v102q0 89 -18.5 156t-51 112t-77 68t-96.5 23q-51 0 -95 -23t-76 -68t-50.5 -112t-18.5 -156v-102z" />
    <glyph glyph-name="uni044F" unicode="&#x44f;" horiz-adv-x="988" 
d="M839 1082v-1082h-177v421h-209l-218 -421h-190l234 452q-88 38 -134 117t-46 183q0 71 23.5 131.5t68.5 104.5t110.5 69t149.5 25h388zM276 750q0 -33 9 -65t28 -56.5t49.5 -40t72.5 -15.5h227v359h-211q-46 0 -79 -16t-54.5 -41.5t-31.5 -58.5t-10 -66z" />
    <glyph glyph-name="uni0452" unicode="&#x452;" horiz-adv-x="989" 
d="M542 1209h-233v-238q48 62 113.5 96.5t144.5 34.5q66 0 120 -21.5t92 -69t58.5 -122t20.5 -180.5v-255h1v-543q0 -170 -73 -259t-203 -89q-26 0 -48 3.5t-46 13.5l13 148q6 -3 17.5 -5.5t24 -4t23.5 -2.5t16 -1q47 0 73 51.5t26 144.5v800q0 127 -42.5 180.5t-127.5 53.5
q-66 0 -118.5 -44t-84.5 -115v-786h-177v1209h-132v151h132v176h177v-176h233v-151z" />
    <glyph glyph-name="uni0454" unicode="&#x454;" horiz-adv-x="968" 
d="M517 131q39 0 74 12t62 37.5t43.5 65t19.5 95.5h167q-3 -81 -33.5 -147.5t-80 -114t-114.5 -73.5t-138 -26q-105 0 -182.5 34t-128.5 98t-76 157t-25 211v122q0 118 25 210.5t76 157t128 98.5t182 34q82 0 148.5 -26.5t114 -77t74.5 -123.5t30 -165h-167
q-6 120 -57.5 180t-142.5 60q-68 0 -113 -24t-71.5 -67.5t-37.5 -105t-12 -137.5h313v-152h-313q1 -77 11.5 -138.5t37 -104.5t72 -66.5t114.5 -23.5z" />
    <glyph glyph-name="uni0459" unicode="&#x459;" horiz-adv-x="1495" 
d="M859 1082v-412h220q83 0 147 -25t107.5 -69.5t65.5 -105t22 -132.5q0 -71 -22 -132.5t-65.5 -107.5t-107.5 -72t-147 -26h-397v929h-249v-310q0 -154 -17.5 -270t-56.5 -193.5t-102.5 -116.5t-154.5 -39h-48l3 155l35 1q45 0 76.5 27t51 83.5t28.5 144t9 208.5v463h602z
M859 518v-369h220q46 0 77.5 17t51 44.5t28 61.5t8.5 68q0 33 -8.5 65t-28 57t-51 40.5t-77.5 15.5h-220z" />
    <glyph glyph-name="uni045A" unicode="&#x45a;" horiz-adv-x="1522" 
d="M326 673h390v409h176v-413h220q84 0 147.5 -25t107 -69t65.5 -104.5t22 -132.5q0 -71 -22 -132.5t-65.5 -107.5t-107 -72t-147.5 -26h-396v522h-390v-522h-178v1082h178v-409zM892 518v-369h220q46 0 77.5 17t51 44.5t28 61.5t8.5 68q0 33 -8.5 65t-28 57t-51 40.5
t-77.5 15.5h-220z" />
    <glyph glyph-name="uni045B" unicode="&#x45b;" horiz-adv-x="1022" 
d="M564 1214h-255v-243q48 62 113.5 96.5t144.5 34.5q66 0 120 -21.5t92 -69t58.5 -122t20.5 -180.5v-709h-176v711q0 127 -42.5 180.5t-127.5 53.5q-66 0 -118.5 -44t-84.5 -115v-786h-177v1214h-110v151h110v171h177v-171h255v-151z" />
    <glyph glyph-name="uni045F" unicode="&#x45f;" horiz-adv-x="1043" 
d="M326 1082v-931h391v931h176v-1082h-282v-356h-176v356h-287v1082h178z" />
    <glyph glyph-name="uni0460" unicode="&#x460;" horiz-adv-x="1546" 
d="M1410 1456v-1059q0 -105 -27 -183.5t-75 -130.5t-114 -77.5t-143 -25.5q-90 0 -161 41t-113 125q-45 -84 -119 -125t-167 -41q-74 0 -137.5 25.5t-109.5 77.5t-72 130.5t-26 183.5v1059h185v-1059q0 -132 45.5 -196.5t114.5 -64.5q42 0 77 16t60.5 48.5t40 81.5t14.5 115
v1059h191v-1059q0 -66 13.5 -115t37 -81.5t56 -48.5t70.5 -16t70 16t55.5 48.5t37 81.5t13.5 115v1059h183z" />
    <glyph glyph-name="uni0461" unicode="&#x461;" horiz-adv-x="1332" 
d="M1223 1082v-729q0 -95 -24 -165t-67 -116.5t-101 -69.5t-127 -23q-75 0 -135.5 34t-98.5 104q-40 -70 -104.5 -104t-143.5 -34q-66 0 -121.5 23t-96 69.5t-63 116.5t-22.5 165v729h177v-729q0 -113 35 -168t91 -55q34 0 63.5 13.5t51 41.5t34 70t12.5 98v729h177v-729
q0 -113 40.5 -168t103.5 -55q30 0 56.5 13.5t45.5 41.5t30 70t11 98v729h176z" />
    <glyph glyph-name="uni0463" unicode="&#x463;" horiz-adv-x="977" 
d="M592 1082h-269v-336h219q84 0 148 -27.5t107.5 -77t65.5 -117t22 -147.5q0 -79 -22 -148t-65.5 -120t-107.5 -80t-148 -29h-396v1082h-158v151h158v325h177v-325h269v-151zM323 594v-443h219q46 0 77.5 18.5t51 49.5t28 70t8.5 81q0 39 -8.5 79t-28 72.5t-51 52.5
t-77.5 20h-219z" />
    <glyph glyph-name="uni0464" unicode="&#x464;" horiz-adv-x="1584" 
d="M349 833h156v30q0 140 33.5 253.5t97 193.5t155.5 123.5t208 43.5q106 0 187.5 -32t138.5 -94t89 -153t37 -209h-185q-6 86 -23 148t-49 102.5t-80 60t-115 19.5q-80 0 -138 -32.5t-96 -91.5t-56.5 -143t-18.5 -187v-32h450v-152h-450v-87q0 -96 15.5 -179t50 -145
t90.5 -97.5t136 -35.5q75 0 126.5 18.5t84 58t49.5 101t24 148.5h185q-6 -113 -37.5 -202t-89.5 -151.5t-143.5 -95.5t-198.5 -33q-110 0 -198 43t-150 123t-95.5 193t-33.5 254v87h-156v-681h-183v1456h183v-623z" />
    <glyph glyph-name="uni0465" unicode="&#x465;" horiz-adv-x="1326" 
d="M321 616h141q1 114 27 204.5t77 153t127.5 95.5t179.5 33q82 0 148.5 -26.5t114 -77t74.5 -123.5t30 -165h-167q-6 120 -57.5 180t-142.5 60q-68 0 -113 -24t-71.5 -67.5t-37.5 -105t-12 -137.5h359v-152h-359q1 -77 11.5 -138.5t37 -104.5t72 -66.5t114.5 -23.5
q39 0 74 12t62 37.5t43.5 65t19.5 95.5h167q-3 -81 -33.5 -147.5t-80 -114t-114.5 -73.5t-138 -26q-104 0 -180.5 32.5t-127.5 94.5t-77 152t-27 205h-141v-464h-177v1082h177v-466z" />
    <glyph glyph-name="uni0466" unicode="&#x466;" horiz-adv-x="1078" 
d="M770 438h-116v-438h-179v438h-107l-126 -438h-187l438 1456h160l429 -1456h-188zM415 602h309l-153 543z" />
    <glyph glyph-name="uni0467" unicode="&#x467;" horiz-adv-x="963" 
d="M641 297h-78v-297h-176v297h-82l-96 -297h-180l368 1082h151l371 -1082h-180zM354 449h237l-104 315l-16 67l-15 -67z" />
    <glyph glyph-name="uni0468" unicode="&#x468;" horiz-adv-x="1557" 
d="M365 602h315l257 854h160l429 -1456h-188l-124 438h-116v-438h-179v438h-107l-126 -438h-187l132 441h-266v-441h-183v1456h183v-854zM859 602h309l-153 543z" />
    <glyph glyph-name="uni0469" unicode="&#x469;" horiz-adv-x="1342" 
d="M351 449h205l216 633h151l371 -1082h-180l-98 297h-78v-297h-176v297h-82l-96 -297h-180l101 297h-154v-297h-177v1082h177v-633zM729 449h237l-104 315l-16 67l-15 -67z" />
    <glyph glyph-name="uni046A" unicode="&#x46a;" horiz-adv-x="1530" 
d="M472 1443v13h817l-330 -646h12q99 0 177 -23.5t132 -76t82.5 -136.5t28.5 -205v-369h-184v369q0 83 -14.5 137.5t-44 87t-73.5 45.5t-104 13h-92l-18 -35v-617h-184v634l-9 18h-109q-59 0 -103 -13t-73.5 -45.5t-44.5 -87t-15 -137.5v-369h-183v369q0 121 28.5 205
t82.5 136.5t132 76t176 23.5h28l-330 646h209zM773 825l230 473h-460z" />
    <glyph glyph-name="uni046B" unicode="&#x46b;" horiz-adv-x="1323" 
d="M836 603q80 -5 143.5 -31t108 -79t68 -134t23.5 -195v-164h-177v164q0 84 -12.5 139.5t-37.5 88.5t-63 46.5t-89 13.5h-40l-8 -17v-435h-176v447l-3 5h-50q-51 0 -89.5 -13.5t-63.5 -46.5t-37.5 -88.5t-12.5 -139.5v-164h-177v164q0 116 24 198t70 134.5t112 78t149 28.5
l-239 479h816zM667 624l141 306h-282z" />
    <glyph glyph-name="uni046C" unicode="&#x46c;" horiz-adv-x="2010" 
d="M619 0v369q0 96 17.5 168t52.5 124h-340v-661h-183v1456h183v-644h716l-329 644h209l6 -13v13h817l-330 -646h12q99 0 177 -23.5t132 -76t82.5 -136.5t28.5 -205v-369h-184v369q0 83 -14.5 137.5t-44 87t-73.5 45.5t-104 13h-92l-18 -35v-617h-184v634l-9 18h-109
q-59 0 -103 -13t-73.5 -45.5t-44.5 -87t-15 -137.5v-369h-183zM1252 825l230 473h-460z" />
    <glyph glyph-name="uni046D" unicode="&#x46d;" horiz-adv-x="1754" 
d="M574 0v164q0 95 16 166t46 123h-313v-453h-177v1082h177v-478h605l-238 478h816l-239 -479q80 -5 143.5 -31t108 -79t68 -134t23.5 -195v-164h-177v164q0 84 -12.5 139.5t-37.5 88.5t-63 46.5t-89 13.5h-40l-8 -17v-435h-176v447l-3 5h-50q-51 0 -89.5 -13.5t-63.5 -46.5
t-37.5 -88.5t-12.5 -139.5v-164h-177zM1098 624l141 306h-282z" />
    <glyph glyph-name="uni046E" unicode="&#x46e;" horiz-adv-x="932" 
d="M360 823q64 0 109.5 17.5t75 50t43 77.5t13.5 99q0 49 -13.5 92t-41.5 75t-70 51t-100 19h-252v152h252q87 0 160.5 -27t127.5 -77.5t84 -123.5t30 -165q0 -51 -14.5 -98t-41.5 -87t-65.5 -72.5t-86.5 -54.5q109 -41 167.5 -127.5t58.5 -217.5q0 -102 -29.5 -181
t-82 -133t-125 -82.5t-158.5 -28.5h-40q-64 0 -91 -31.5t-27 -81.5q0 -40 14 -70t34 -52.5t43 -38t41 -25.5l-71 -124q-41 19 -81.5 49t-72.5 69.5t-52.5 90t-21.5 110.5q0 66 21 114t59 79.5t92.5 46.5t120.5 15h32q52 0 93 20t69 56t42.5 85.5t14.5 108.5
q0 137 -66.5 203.5t-193.5 66.5h-122v151h122zM468 1756l119 170h152v-10l-219 -274h-104l-216 274v10h148z" />
    <glyph glyph-name="uni046F" unicode="&#x46f;" horiz-adv-x="868" 
d="M365 617q56 0 95.5 11.5t64.5 32.5t36.5 50.5t11.5 65.5q0 31 -11.5 59t-35.5 48.5t-60 32.5t-85 12h-256v153h256q79 0 146.5 -21t117 -61t77.5 -97.5t28 -129.5q0 -74 -43.5 -133t-121.5 -95q88 -32 135.5 -92.5t47.5 -148.5q0 -77 -27 -137t-75.5 -101t-115 -63
t-145.5 -22h-41q-65 0 -91.5 -32t-26.5 -81q0 -40 14 -70t34 -52.5t43 -38t41 -25.5l-72 -124q-41 19 -81.5 49t-72.5 69.5t-52.5 90t-21.5 110.5q0 66 21 114t59 79.5t92.5 46.5t120.5 15h34q45 0 79.5 12.5t58 35t36 53t12.5 67.5q0 85 -57.5 125.5t-168.5 40.5h-122v151
h122zM412 1414l119 170h152v-10l-219 -274h-104l-216 274v10h148z" />
    <glyph glyph-name="uni0472" unicode="&#x472;" horiz-adv-x="1216" 
d="M1089 600q0 -155 -34 -271t-97 -193.5t-153.5 -116.5t-203.5 -39q-110 0 -200 39t-155 116.5t-100.5 193.5t-35.5 271v253q0 154 35.5 270.5t99.5 195t154 118t200 39.5q113 0 203.5 -39.5t154.5 -118t98 -195t34 -270.5v-253zM292 795h614v60q0 120 -20 206.5t-59 142
t-96 81.5t-132 26q-71 0 -127.5 -26t-96.5 -81.5t-61.5 -142t-21.5 -206.5v-60zM906 643h-614v-43q0 -121 22 -207.5t62 -142t97 -81.5t128 -26q75 0 132 26t95.5 81.5t58 142t19.5 207.5v43z" />
    <glyph glyph-name="uni0473" unicode="&#x473;" horiz-adv-x="1020" 
d="M95 591q0 127 32.5 222.5t89 159.5t132.5 96.5t163 32.5q88 0 165 -32.5t133.5 -96.5t89 -159.5t32.5 -222.5v-102q0 -126 -32.5 -221.5t-89 -159.5t-132.5 -96t-164 -32t-164.5 32t-133 96t-89 159.5t-32.5 221.5v102zM514 131q235 0 241 340h-483q2 -85 21 -149
t51 -106.5t75.5 -63.5t94.5 -21zM512 950q-49 0 -91 -21t-74 -62t-52 -102.5t-23 -142.5h482q-3 81 -22.5 142.5t-52 102.5t-75 62t-92.5 21z" />
    <glyph glyph-name="uni0474" unicode="&#x474;" horiz-adv-x="1133" 
d="M517 374l29 -123l30 122l201 809q21 78 45 134t53 91t66 51.5t84 16.5l45 -1l-1 -171h-11q-21 0 -36 -7t-27.5 -23.5t-23 -44.5t-20.5 -69l-326 -1159h-159l-430 1456h199z" />
    <glyph glyph-name="uni0475" unicode="&#x475;" horiz-adv-x="908" 
d="M432 316l15 -78l16 78l119 543q19 66 43 112t52 75t59 42t64 13q24 0 47 -3.5t46 -20.5l-19 -148q-4 3 -12 5.5t-18 2.5q-26 0 -50 -24t-34 -69l-248 -844h-133l-320 1082h180z" />
    <glyph glyph-name="uni047A" unicode="&#x47a;" horiz-adv-x="1216" 
d="M697 1203h-177v386h177v-386zM697 -141h-177v395h177v-395zM1089 600q0 -155 -34 -271t-97 -193.5t-153.5 -116.5t-203.5 -39q-110 0 -200 39t-155 116.5t-100.5 193.5t-35.5 271v253q0 154 35.5 270.5t99.5 195t154 118t200 39.5q113 0 203.5 -39.5t154.5 -118t98 -195
t34 -270.5v-253zM906 855q0 120 -20 206.5t-59 142t-96 81.5t-132 26q-71 0 -127.5 -26t-96.5 -81.5t-61.5 -142t-21.5 -206.5v-255q0 -121 22 -207.5t62 -142t97 -81.5t128 -26q75 0 132 26t95.5 81.5t58 142t19.5 207.5v255z" />
    <glyph glyph-name="uni047B" unicode="&#x47b;" horiz-adv-x="1022" 
d="M599 838h-176v368h176v-368zM599 -119h-176v367h176v-367zM95 591q0 127 32.5 222.5t89 159.5t132.5 96.5t163 32.5q88 0 165 -32.5t133.5 -96.5t89 -159.5t32.5 -222.5v-102q0 -126 -32.5 -221.5t-89 -159.5t-132.5 -96t-164 -32t-164.5 32t-133 96t-89 159.5
t-32.5 221.5v102zM272 489q0 -90 18.5 -157t51 -111.5t76.5 -67t96 -22.5q241 0 241 358v102q0 89 -18.5 156t-51 112t-77 68t-96.5 23q-51 0 -95 -23t-76 -68t-50.5 -112t-18.5 -156v-102z" />
    <glyph glyph-name="uni047C" unicode="&#x47c;" horiz-adv-x="1541" 
d="M1061 1455q74 0 137 -28t108.5 -84.5t71.5 -141.5t26 -199v-571q0 -114 -26 -198.5t-71.5 -141t-108.5 -84.5t-137 -28q-93 0 -167 40.5t-119 122.5q-45 -82 -118.5 -122.5t-165.5 -40.5q-74 0 -137.5 28t-109.5 84.5t-72 141t-26 198.5v571q0 114 26 199t72 141.5
t109.5 84.5t137.5 28v-158q-69 0 -114.5 -73t-45.5 -222v-571q0 -150 45.5 -222.5t114.5 -72.5q42 0 77 16t60.5 48.5t40 81.5t14.5 115v428h185v-428q0 -66 14.5 -115t40 -81.5t61 -48.5t77.5 -16q69 0 114 72.5t45 222.5v571q0 149 -45 222t-114 73v158zM1146 1747v-127
h-41q-72 0 -130.5 19.5t-106.5 43.5t-87.5 43.5t-74.5 19.5q-37 0 -60.5 -26.5t-23.5 -82.5v-18h-119v36q0 111 53 164.5t146 53.5q49 0 93.5 -19.5t91.5 -43.5t100.5 -43.5t120.5 -19.5h38zM673 1379q28 40 43 75.5t15 73.5v96h148v-102q0 -29 -12.5 -59t-32 -56.5
t-43 -48.5t-45.5 -35z" />
    <glyph glyph-name="uni047D" unicode="&#x47d;" horiz-adv-x="1340" 
d="M922 1092q66 0 121.5 -25.5t96 -77t63 -129t22.5 -180.5v-290q0 -104 -22.5 -181t-63 -128t-96 -76.5t-121.5 -25.5q-81 0 -145.5 34.5t-104.5 104.5q-40 -70 -104 -104.5t-144 -34.5q-66 0 -121.5 25.5t-96 76.5t-63 128t-22.5 181v290q0 103 22.5 180.5t63 129t96 77
t121.5 25.5v-152q-56 0 -91.5 -64t-35.5 -196v-290q0 -132 35.5 -196t91.5 -64q34 0 63.5 13.5t51 41.5t33.5 70t12 98v235h177v-235q0 -56 12.5 -98t34 -70t51 -41.5t63.5 -13.5q55 0 90.5 64t35.5 196v290q0 132 -35.5 196t-90.5 64v152zM1071 1395v-127h-41
q-73 0 -131.5 19.5t-106.5 43t-87 43t-74 19.5q-36 0 -60 -26t-24 -82v-18h-119v36q0 111 53 164.5t147 53.5q49 0 93 -19.5t91 -43.5t100 -43.5t120 -19.5h39zM601 1017q28 40 42.5 75.5t14.5 74.5v95h149v-102q0 -29 -12.5 -59t-32 -56.5t-43 -48.5t-45.5 -35z" />
    <glyph glyph-name="uni047E" unicode="&#x47e;" horiz-adv-x="1547" 
d="M434 1688v108h699v-108h-277v-125h-160v125h-262zM1410 1456v-1059q0 -105 -27 -183.5t-75 -130.5t-114 -77.5t-143 -25.5q-90 0 -161 41t-113 125q-45 -84 -119 -125t-167 -41q-74 0 -137.5 25.5t-109.5 77.5t-72 130.5t-26 183.5v1059h185v-1059q0 -132 45.5 -196.5
t114.5 -64.5q42 0 77 16t60.5 48.5t40 81.5t14.5 115v1059h191v-1059q0 -66 13.5 -115t37 -81.5t56 -48.5t70.5 -16t70 16t55.5 48.5t37 81.5t13.5 115v1059h183z" />
    <glyph glyph-name="uni047F" unicode="&#x47f;" horiz-adv-x="1333" 
d="M328 1349v108h699l3 -108h-280v-127h-159v127h-263zM1223 1082v-729q0 -95 -24 -165t-67 -116.5t-101 -69.5t-127 -23q-75 0 -135.5 34t-98.5 104q-40 -70 -104.5 -104t-143.5 -34q-66 0 -121.5 23t-96 69.5t-63 116.5t-22.5 165v729h177v-729q0 -113 35 -168t91 -55
q34 0 63.5 13.5t51 41.5t34 70t12.5 98v729h177v-729q0 -113 40.5 -168t103.5 -55q30 0 56.5 13.5t45.5 41.5t30 70t11 98v729h176z" />
    <glyph glyph-name="uni0480" unicode="&#x480;" horiz-adv-x="1168" 
d="M693 -380h-182v366q-90 16 -163 68.5t-125 133.5t-80.5 186.5t-28.5 228.5v250q0 135 34.5 249t96.5 197.5t148.5 130.5t190.5 47q106 0 191 -34t144.5 -97.5t91.5 -154t32 -202.5h-184q1 76 -16.5 137.5t-52.5 104t-86.5 65.5t-119.5 23q-67 0 -120 -36.5t-90 -99.5
t-56.5 -147.5t-19.5 -180.5v-252q0 -98 19.5 -183t56.5 -148t90.5 -99.5t121.5 -36.5h107v-516z" />
    <glyph glyph-name="uni0481" unicode="&#x481;" horiz-adv-x="967" 
d="M595 -382h-177v371q-77 18 -136.5 66.5t-100 119.5t-61 159.5t-20.5 185.5v42q0 109 26.5 207t77.5 172t126 117.5t171 43.5q78 0 143.5 -30t113 -83t73.5 -124.5t26 -155.5h-166q0 50 -14.5 94t-40 76.5t-60 51.5t-75.5 19q-60 0 -102.5 -34t-69.5 -89.5t-39.5 -125
t-12.5 -139.5v-42q0 -72 12.5 -141.5t39.5 -125t69.5 -89.5t102.5 -34h94v-512z" />
    <glyph glyph-name="uni0482" unicode="&#x482;" horiz-adv-x="1122" 
d="M531 446l243 -172l-62 -123l-244 170l-152 -321h-151l189 398l-243 171l62 123l246 -171l167 365l-243 171l63 125l245 -171l153 331h149l-191 -408l246 -171l-65 -122l-242 170z" />
    <glyph glyph-name="uni0483" unicode="&#x483;" horiz-adv-x="40" 
d="M-616 1315v-125l-157 1l1 233h462l-1 108l157 -1v-216h-462z" />
    <glyph glyph-name="uni0484" unicode="&#x484;" horiz-adv-x="40" 
d="M-710 1430q67 0 120 20t99.5 43.5t90.5 43.5t93 20q94 0 147.5 -53.5t53.5 -164.5v-36h-120v18q0 55 -23.5 81.5t-60.5 26.5q-35 0 -74 -19.5t-87 -43t-106 -43t-131 -19.5h-42v126h40z" />
    <glyph glyph-name="uni0485" unicode="&#x485;" horiz-adv-x="40" 
d="M-544 1500v123h164v-140l48 -116l-71 -65z" />
    <glyph glyph-name="uni0486" unicode="&#x486;" horiz-adv-x="40" 
d="M-417 1302l-71 65l48 116l-1 140h166v-123z" />
    <glyph glyph-name="uni0488" unicode="&#x488;" horiz-adv-x="0" 
d="M-646 1267q0 41 14.5 75.5t41.5 59.5t66 39t88 14t88 -14t66.5 -39t42 -59.5t14.5 -75.5h-112q0 20 -5.5 38t-17 32t-30.5 22.5t-46 8.5t-45.5 -8.5t-30 -22.5t-16.5 -32t-5 -38h-113zM-55 990q0 41 14.5 75.5t41.5 59.5t66 39t87 14q49 0 88.5 -14t67 -39t42 -59.5
t14.5 -75.5h-113q0 20 -5 38t-17 32t-31 22.5t-46 8.5q-26 0 -44.5 -8.5t-30 -22.5t-16.5 -32t-5 -38h-113zM131 487q0 41 14.5 75.5t42 59.5t66.5 39t87 14q49 0 88 -14t66.5 -39t42 -59.5t14.5 -75.5h-112q0 20 -5 38t-17 32t-31 22.5t-46 8.5q-26 0 -44.5 -8.5t-30 -22.5
t-17 -32t-5.5 -38h-113zM-65 -32q0 41 14.5 75.5t41.5 59.5t66 39t87 14q49 0 88 -14t66.5 -39t42 -59.5t14.5 -75.5h-112q0 20 -5 38t-17 32t-31 22.5t-46 8.5q-26 0 -44.5 -8.5t-30 -22.5t-17 -32t-5.5 -38h-112zM-641 -316q0 41 14.5 75.5t41.5 59.5t66 39t88 14t88 -14
t66.5 -39t42 -59.5t14.5 -75.5h-112q0 20 -5.5 38t-17 32t-30.5 22.5t-46 8.5q-26 0 -44.5 -8.5t-30 -22.5t-17 -32t-5.5 -38h-113zM-1219 990q0 41 14.5 75.5t42 59.5t66.5 39t88 14t88 -14t66.5 -39t42 -59.5t14.5 -75.5h-112q0 20 -5.5 38t-17 32t-30.5 22.5t-46 8.5
t-45.5 -8.5t-30 -22.5t-16.5 -32t-5 -38h-114zM-1395 487q0 41 14.5 75.5t42 59.5t66.5 39t87 14q49 0 88 -14t66.5 -39t42 -59.5t14.5 -75.5h-112q0 20 -5 38t-17 32t-31 22.5t-46 8.5q-26 0 -44.5 -8.5t-30 -22.5t-17 -32t-5.5 -38h-113zM-1229 -32q0 41 14.5 75.5
t42 59.5t66.5 39t87 14q49 0 88.5 -14t67 -39t42 -59.5t14.5 -75.5h-113q0 20 -5 38t-17 32t-31 22.5t-46 8.5q-26 0 -44.5 -8.5t-30 -22.5t-16.5 -32t-5 -38h-114z" />
    <glyph glyph-name="uni0489" unicode="&#x489;" horiz-adv-x="0" 
d="M-345 -60l11 -14l-122 -339h-96l70 353h137zM-540 1126l-12 14l122 338h96l-70 -352h-136zM137 631l13 12l333 -124v-98l-346 71v139zM-1026 433l-13 -12l-333 124v98l346 -71v-139zM-102 1002l2 16l320 153l68 -68l-293 -200zM-786 21l-2 -17l-320 -153l-69 69l294 200z
M-926 860l-17 2l-148 326l65 69l198 -299zM35 161l17 -2l149 -325l-66 -71l-196 299z" />
    <glyph glyph-name="uni048D" unicode="&#x48d;" horiz-adv-x="977" 
d="M592 1304h-269v-558h219q84 0 148 -27.5t107.5 -77t65.5 -117t22 -147.5q0 -79 -22 -148t-65.5 -120t-107.5 -80t-148 -29h-396v1304h-158v152h158v193h177v-193h269v-152zM323 594v-443h219q46 0 77.5 18.5t51 49.5t28 70t8.5 81q0 39 -8.5 79t-28 72.5t-51 52.5
t-77.5 20h-219z" />
    <glyph glyph-name="uni048E" unicode="&#x48e;" horiz-adv-x="1142" 
d="M1086 575l-103 -102l-319 404l103 103zM340 570v-570h-183v1456h464q105 0 186.5 -33t136.5 -92.5t83.5 -141t28.5 -178.5q0 -105 -28.5 -187.5t-84 -138.5t-136.5 -85.5t-186 -29.5h-281zM340 727h281q67 0 114.5 21t78 58.5t45 89t14.5 113.5q0 56 -14.5 108.5
t-45 92.5t-78 64t-114.5 24h-281v-571z" />
    <glyph glyph-name="uni048F" unicode="&#x48f;" horiz-adv-x="1018" 
d="M925 15l-103 -103l-290 374l103 103zM914 489q0 -257 -92.5 -383t-261.5 -126q-85 0 -146.5 31.5t-104.5 91.5v-519h-176v1498h160l9 -120q43 68 105.5 104t149.5 36t153.5 -30t111.5 -92.5t68.5 -159.5t23.5 -230v-101zM738 590q0 182 -56 268.5t-180 86.5
q-69 0 -116.5 -35.5t-76.5 -91.5v-563q29 -55 75 -89.5t120 -34.5q121 0 177.5 88t56.5 270v101z" />
    <glyph glyph-name="uni0490" unicode="&#x490;" horiz-adv-x="984" 
d="M910 1304h-2v-6h-573v-1298h-184v1456h583v336h176v-488z" />
    <glyph glyph-name="uni0491" unicode="&#x491;" horiz-adv-x="811" 
d="M723 929h-408v-929h-178v1082h409v317h177v-470z" />
    <glyph glyph-name="uni0494" unicode="&#x494;" horiz-adv-x="1104" 
d="M923 1298h-573v-465h143q121 0 215.5 -39t159.5 -113.5t98.5 -181.5t33.5 -243q0 -130 -26.5 -231.5t-77.5 -171t-126 -106t-172 -36.5l-2 147q65 0 108.5 28.5t70 80.5t37.5 125.5t11 163.5q-1 202 -80 308.5t-250 106.5h-143v-671h-184v1456h757v-158z" />
    <glyph glyph-name="uni0495" unicode="&#x495;" horiz-adv-x="909" 
d="M718 929h-403v-283h88q93 0 171.5 -32t135.5 -93t89 -149.5t32 -201.5q-1 -37 -8.5 -81t-24 -90.5t-42.5 -91.5t-62 -83t-83 -66.5t-106 -41.5l-46 146q55 18 92.5 48.5t61 70.5t33 88t9.5 101q-1 76 -19.5 134.5t-51.5 98.5t-79 60.5t-102 20.5h-88v-484h-178v1082h581
v-153z" />
    <glyph glyph-name="uni049C" unicode="&#x49c;" horiz-adv-x="1133" 
d="M1075 1456l-332 -685l365 -771h-230l-267 654h-61v-244h-140v244h-74v-654h-184v1456h184v-641h74v256h140v-256h58l253 641h214z" />
    <glyph glyph-name="uni049D" unicode="&#x49d;" horiz-adv-x="1020" 
d="M980 1082l-286 -509l313 -573h-222l-218 461h-30v-194h-140v194h-73v-461h-177v1082h177v-458h73v213h140v-213h24l208 458h211z" />
    <glyph glyph-name="uni04A0" unicode="&#x4a0;" horiz-adv-x="1455" 
d="M789 654h-138v-654h-183v1304h-394v152h577v-642h112l410 642h228l-462 -704l496 -752h-224z" />
    <glyph glyph-name="uni04A1" unicode="&#x4a1;" horiz-adv-x="1245" 
d="M702 461h-100v-461h-177v930h-349v152h526v-458h88l295 458h211l-361 -515l387 -567h-222z" />
    <glyph glyph-name="uni04A4" unicode="&#x4a4;" horiz-adv-x="1699" 
d="M340 830h586v626h691v-152h-507v-1304h-184v673h-586v-673h-183v1456h183v-626z" />
    <glyph glyph-name="uni04A5" unicode="&#x4a5;" horiz-adv-x="1259" 
d="M315 613h390v469h471v-153h-295v-929h-176v462h-390v-462h-178v1082h178v-469z" />
    <glyph glyph-name="uni04A6" unicode="&#x4a6;" horiz-adv-x="1804" 
d="M1104 833h87q121 0 215.5 -39t159.5 -113.5t98.5 -181.5t33.5 -243q0 -130 -26.5 -231.5t-77.5 -171t-126 -106t-172 -36.5l-2 147q65 0 108.5 28.5t70 80.5t37.5 125.5t11 163.5q-1 202 -80 308.5t-250 106.5h-87v-671h-184v1298h-570v-1298h-183v1456h937v-623z" />
    <glyph glyph-name="uni04A7" unicode="&#x4a7;" horiz-adv-x="1547" 
d="M882 646h142q97 0 179.5 -32t141.5 -93t92.5 -149.5t33.5 -201.5q0 -37 -8 -81t-24.5 -90.5t-42.5 -91.5t-62 -83t-83.5 -66.5t-106.5 -41.5l-45 146q55 18 92.5 48.5t60.5 70.5t32.5 88t9.5 101q-1 76 -20.5 134.5t-55 98.5t-85 60.5t-109.5 20.5h-142v-484h-176v929
h-391v-929h-178v1082h745v-436z" />
    <glyph glyph-name="uni04A8" unicode="&#x4a8;" horiz-adv-x="1314" 
d="M1234 -28q-94 0 -177.5 19t-156.5 54q-59 -32 -125.5 -49t-140.5 -17q-116 0 -212 53.5t-165 147.5t-107 221t-38 274v172q0 133 28 248t78.5 200t121.5 133.5t158 48.5v-165q-47 0 -84.5 -35.5t-63.5 -97.5t-39.5 -146.5t-13.5 -183.5v-174q0 -114 23.5 -211.5t67 -169
t106 -112t140.5 -40.5q28 0 54 3t51 11q-103 97 -159 235t-56 308v227q0 116 25.5 216.5t71.5 174t110.5 115.5t142.5 42t142.5 -41t110.5 -114t71.5 -174.5t25.5 -222.5v-244q0 -158 -47 -290t-132 -227q43 -14 89.5 -21t99.5 -7v-161zM707 697q0 -147 46 -262.5
t136 -189.5q74 72 113 184t39 249v249q0 85 -11.5 156t-33 121t-52.5 78t-70 28q-38 0 -69 -29t-53 -80t-33.5 -121t-11.5 -152v-231z" />
    <glyph glyph-name="uni04A9" unicode="&#x4a9;" horiz-adv-x="1083" 
d="M1020 -12q-78 0 -145.5 14.5t-127.5 42.5q-48 -32 -103.5 -49t-118.5 -17q-93 0 -170 45t-131.5 124.5t-84.5 187.5t-30 233v58q0 102 21.5 188.5t61 150.5t94.5 100t122 36v-158q-29 0 -52 -23.5t-38.5 -65.5t-23.5 -100t-8 -126v-60q0 -92 16.5 -171.5t47 -137.5
t75 -91t100.5 -33q39 0 74 12q-80 79 -122 187.5t-42 236.5v104q0 94 18.5 172.5t53.5 135t85 88t113 31.5t113.5 -34.5t86 -94.5t54 -142t18.5 -177v-105q0 -113 -28 -210.5t-80 -172.5q66 -22 151 -22v-157zM612 570q0 -99 28.5 -179t85.5 -137q36 56 55.5 131.5
t19.5 164.5v108q0 60 -6 112.5t-18 91.5t-30 61.5t-42 22.5q-23 0 -40.5 -20t-29 -55.5t-17.5 -84.5t-6 -108v-108z" />
    <glyph glyph-name="uni04B4" unicode="&#x4b4;" horiz-adv-x="1602" 
d="M377 1304h-308v152h802v-152h-310v-1147h569v1299h183v-1295h132l-18 -512h-164v351h-886v1304z" />
    <glyph glyph-name="uni04B5" unicode="&#x4b5;" horiz-adv-x="1203" 
d="M268 931h-221v152h595v-152h-196v-780h391v931h176v-931h114l-18 -472h-157v321h-684v931z" />
    <glyph glyph-name="uni04B8" unicode="&#x4b8;" horiz-adv-x="1220" 
d="M697 318h-140v701h140v-701zM1063 1456v-1456h-184v602q-35 -12 -70 -21.5t-74 -16.5t-83 -10.5t-96 -3.5q-98 0 -175.5 24.5t-131 78t-82 139.5t-28.5 209v455h184v-455q0 -85 14.5 -141.5t43.5 -90t72.5 -47.5t102.5 -14q88 0 168 14.5t155 38.5v695h184z" />
    <glyph glyph-name="uni04B9" unicode="&#x4b9;" horiz-adv-x="991" 
d="M563 229h-140v566h140v-566zM853 0h-178v388q-45 -13 -92.5 -20.5t-106.5 -7.5q-79 0 -144 24.5t-111.5 75t-72 127t-25.5 180.5v316h177v-316q0 -134 46.5 -194.5t129.5 -60.5q57 0 105 8t94 22v540h178v-1082z" />
    <glyph glyph-name="uni04BA" unicode="&#x4ba;" horiz-adv-x="1220" 
d="M87 0v1456h184v-602q35 12 70 21.5t73.5 16.5t82.5 10.5t97 3.5q98 0 175.5 -24.5t131 -78t82 -139.5t28.5 -209v-455h-184v455q0 85 -14.5 141.5t-43.5 90t-72.5 47.5t-102.5 14q-88 0 -168 -14.5t-155 -39.5v-694h-184z" />
    <glyph glyph-name="uni04BC" unicode="&#x4bc;" horiz-adv-x="1382" 
d="M879 -22q-127 0 -225 46t-165 129t-101.5 198t-34.5 252v100q-68 11 -119 42t-85 80t-51 113.5t-17 142.5h144q0 -88 30 -149.5t98 -83.5v3q0 137 36 252t98 197.5t146 128.5t179 46q114 0 199.5 -47t142.5 -133.5t85.5 -209.5t28.5 -276v-113h-731v-93q0 -97 19 -182
t60.5 -148.5t106 -100t156.5 -36.5q50 0 91.5 8t75 20t60.5 26.5t48 28.5l43 -143q-12 -12 -37.5 -28.5t-65 -32t-93.5 -26.5t-122 -11zM537 836h548v33q0 93 -13 174.5t-44.5 141.5t-84 95t-131.5 35q-66 0 -117.5 -36.5t-86.5 -99.5t-53 -147.5t-18 -180.5v-15z" />
    <glyph glyph-name="uni04BD" unicode="&#x4bd;" horiz-adv-x="1062" 
d="M609 -20q-97 0 -175 29t-132.5 88.5t-83.5 150.5t-29 215v57q-103 29 -154.5 116.5t-51.5 220.5h140q0 -63 16.5 -111t52.5 -75q10 118 47 200t91.5 133.5t121 74.5t137.5 23q102 0 174 -33.5t118 -98.5t67 -160t21 -219v-103h-604v-25q0 -174 65.5 -253t188.5 -79
q45 0 81 9t66 25.5t55 39t47 49.5l92 -112q-22 -31 -53 -60t-74 -51.5t-98.5 -36.5t-125.5 -14zM589 950q-46 0 -85 -14t-68.5 -49.5t-47.5 -95.5t-22 -151h426v24q-3 63 -13.5 115.5t-33 90.5t-60.5 59t-96 21z" />
    <glyph glyph-name="uni04C3" unicode="&#x4c3;" horiz-adv-x="1133" 
d="M336 0h-184v1456h184v-625h98l421 625h214l-442 -633q103 -12 183.5 -55.5t136 -117t84 -174t28.5 -226.5q0 -127 -26.5 -228.5t-78 -172.5t-128 -109t-176.5 -38l-2 152q66 0 109.5 29t69.5 81t36.5 124.5t10.5 159.5q-2 202 -79.5 307.5t-243.5 105.5h-215v-661z" />
    <glyph glyph-name="uni04C4" unicode="&#x4c4;" horiz-adv-x="987" 
d="M570 612q75 -14 137.5 -47.5t106.5 -88t68.5 -130t24.5 -171.5q-1 -36 -8.5 -78t-24 -86.5t-42.5 -87t-62 -79t-83 -63.5t-106 -39l-45 146q55 16 92.5 44.5t60.5 66t33 82t10 94.5q-1 76 -21 130.5t-55.5 89t-85 50.5t-109.5 16h-137v-461h-177v1082h177v-458h62
l321 458h211z" />
    <glyph glyph-name="uni04C7" unicode="&#x4c7;" horiz-adv-x="1270" 
d="M350 1456v-658h567v658h184v-1540q0 -172 -74.5 -262.5t-207.5 -90.5q-26 0 -48 4t-48 14l12 154q7 -3 18.5 -5.5t24 -4.5t23.5 -3t16 -1q48 0 74 51.5t26 143.5v725h-567v-641h-184v1456h184z" />
    <glyph glyph-name="uni04C8" unicode="&#x4c8;" horiz-adv-x="1021" 
d="M315 1082v-469h390v469h176v-1171q0 -169 -73.5 -258.5t-203.5 -89.5q-26 0 -48 4t-46 14l13 147q6 -3 17.5 -5.5t24.5 -4t23.5 -2.5t15.5 -1q48 0 74.5 52t26.5 144v551h-390v-462h-178v1082h178z" />
    <glyph glyph-name="uni04D8" unicode="&#x4d8;" horiz-adv-x="1223" 
d="M544 1476q135 0 240 -52t176.5 -145t108.5 -222t37 -283v-94q0 -155 -40 -284t-109.5 -221.5t-162.5 -143.5t-198 -51q-127 0 -222 46.5t-158.5 132.5t-95.5 209t-32 275v124h833v7q0 112 -21 211t-66.5 172.5t-117 116t-172.5 42.5q-53 0 -97 -8t-79.5 -20.5
t-64.5 -27.5t-52 -28l-42 143q12 12 39.5 29t69.5 33t98.5 27.5t127.5 11.5zM596 138q73 0 130.5 37t98.5 101.5t64.5 152.5t29.5 189h-647v-34q0 -93 16 -174.5t53.5 -142t99.5 -95t155 -34.5z" />
    <glyph glyph-name="uni04E0" unicode="&#x4e0;" horiz-adv-x="1045" 
d="M880 1456l1 -125l-342 -482q91 -7 163.5 -40t122 -89t76 -135t26.5 -179q0 -102 -31.5 -181.5t-88 -134t-134.5 -83t-170 -28.5q-73 0 -144.5 24.5t-128 76t-91.5 132t-35 192.5h184q0 -55 15.5 -104t43.5 -85.5t67.5 -57.5t88.5 -21q57 0 102 20t75.5 55.5t46.5 84
t16 106.5q0 157 -67.5 228t-195.5 71h-125v151l309 446h-520v158h736z" />
    <glyph glyph-name="uni04E1" unicode="&#x4e1;" horiz-adv-x="1045" 
d="M647 929h-502v153h730l1 -118l-334 -494q91 -8 161.5 -40.5t119.5 -88t74.5 -133.5t25.5 -177q0 -101 -31.5 -180.5t-87.5 -134t-133.5 -83t-168.5 -28.5q-72 0 -143.5 24.5t-127.5 76.5t-91 132t-35 191h178q0 -56 15.5 -105t44.5 -86.5t69 -59t90 -21.5q58 0 104 20
t77 56t47.5 85.5t16.5 108.5q0 159 -67.5 228.5t-196.5 69.5h-130v151z" />
    <glyph glyph-name="uni04FA" unicode="&#x4fa;" horiz-adv-x="1067" 
d="M991 1298h-573v-1298h-184v1456h757v-158zM622 715h-542v151h542v-151zM573 152v-241q0 -170 -73 -259t-204 -89q-26 0 -48 4t-45 14l12 157q6 -3 18 -5.5t24 -4t23 -2.5t16 -1q48 0 74 47t26 139v241h177z" />
    <glyph glyph-name="uni04FB" unicode="&#x4fb;" horiz-adv-x="746" 
d="M806 929h-403v-929h-178v1082h581v-153zM621 537h-542v151h542v-151zM560 152v-241q0 -170 -73 -259t-204 -89q-26 0 -48 4t-45 14l12 157q6 -3 18 -5.5t24 -4t23 -2.5t16 -1q48 0 74 47t26 139v241h177z" />
    <glyph glyph-name="uni0500" unicode="&#x500;" horiz-adv-x="1138" 
d="M806 883v573h186v-1456h-477q-101 0 -179 33.5t-131 93t-80.5 141t-27.5 177.5q0 97 27.5 177.5t80.5 138.5t131 90t179 32h291zM806 157v568h-291q-63 0 -107.5 -23t-73 -61.5t-41.5 -88.5t-13 -105t13 -107.5t41.5 -93t73 -65t107.5 -24.5h291z" />
    <glyph glyph-name="uni0502" unicode="&#x502;" horiz-adv-x="1482" 
d="M518 0q-101 0 -179.5 33.5t-131.5 93t-80.5 141t-27.5 177.5q0 97 27.5 177.5t80.5 138.5t131.5 90t179.5 32h292v573h185v-1301l62 1q89 2 134.5 75t48.5 196q1 78 -12 164.5t-39 164.5h178q11 -39 21.5 -80t18.5 -83t12.5 -84t3.5 -82q-2 -107 -31.5 -187t-79.5 -133.5
t-116 -80t-139 -26.5h-539zM810 157v568h-292q-63 0 -107 -23t-72.5 -61.5t-41.5 -88.5t-13 -105t13 -107.5t41.5 -93t72.5 -65t107 -24.5h292z" />
    <glyph glyph-name="uni0503" unicode="&#x503;" horiz-adv-x="1523" 
d="M100 521q0 128 23.5 234.5t69 183.5t112 120t152.5 43q75 0 132 -28.5t99 -82.5v569h176v-1215q-1 -48 8.5 -87.5t27 -68t43 -44t56.5 -15.5q57 1 100.5 29t73 79.5t45.5 125t17 165.5q2 100 -11 201t-39 201l170 1q23 -98 40.5 -199t15.5 -204q-2 -139 -36 -242.5
t-90.5 -171.5t-130.5 -102t-155 -34q-98 -2 -167.5 37.5t-106.5 130.5q-44 -81 -110 -124.5t-159 -43.5q-85 0 -151.5 38.5t-112 107.5t-69 165t-23.5 210v21zM688 824q-30 54 -75 87.5t-110 33.5q-62 0 -105 -33.5t-70 -91t-39 -135t-12 -164.5v-21q0 -77 12 -143.5
t39 -115.5t70 -77t104 -28q70 0 116.5 37.5t75.5 96.5q-5 34 -6 75v479z" />
    <glyph glyph-name="uni0504" unicode="&#x504;" horiz-adv-x="1404" 
d="M602 371q0 58 -14.5 106.5t-41 83t-64.5 53.5t-84 19h-165v158h113q70 0 118.5 16t78.5 48t43.5 80t13.5 112q0 57 -13 103t-41 79t-72 51t-107 18h-301v158h301q204 0 310.5 -104.5t106.5 -306.5q0 -115 -50 -198t-147 -131q55 -20 93 -53t61.5 -77.5t33.5 -98
t10 -114.5v-69q0 -37 7.5 -67.5t22 -53t35.5 -35t47 -12.5q46 1 82 29.5t60.5 80t37.5 123.5t14 160q2 100 -11 201.5t-38 201.5h177q22 -98 40 -199t17 -204q-2 -138 -33.5 -241t-84 -172t-120.5 -103t-143 -34q-66 -2 -119 16t-90.5 57.5t-59 102t-24.5 149.5v67z" />
    <glyph glyph-name="uni0505" unicode="&#x505;" horiz-adv-x="1153" 
d="M654 213q-1 -40 12.5 -64t50.5 -24q88 2 134.5 79.5t49.5 214.5q1 78 -12 159.5t-38 159.5h170q22 -78 40.5 -158t16.5 -161q-2 -113 -32 -196.5t-79.5 -138.5t-114 -82.5t-135.5 -27.5q-116 -3 -175 53t-65 187v75q0 73 -42 113t-123 40h-177l-2 150h151q51 0 87.5 11.5
t59 32.5t33 51t10.5 67q0 39 -10 71.5t-32.5 56t-58 37t-86.5 13.5h-220l-5 150h225q88 0 156 -22t114.5 -63t71 -101t24.5 -136q0 -81 -41 -137.5t-119 -92.5q45 -14 76 -37.5t49.5 -54.5t27 -68.5t8.5 -79.5v-77v0z" />
    <glyph glyph-name="uni0506" unicode="&#x506;" horiz-adv-x="964" 
d="M160 633v152h135q70 0 118.5 17t79 50t44.5 81t14 111q0 60 -13 108t-41.5 81.5t-73.5 52t-109 18.5h-229v152h229q202 0 307.5 -105t105.5 -309q0 -113 -49 -196t-144 -132q53 -20 89 -53t58.5 -77.5t32 -98t9.5 -114.5v-136q0 -63 12.5 -118t44.5 -92v-25h-182
q-20 21 -30.5 53t-15 66.5t-5 66t-0.5 51.5v132q0 59 -14 108t-40.5 83.5t-64 53.5t-83.5 19h-1h-184zM897 64q0 -45 -11.5 -94t-34 -97t-54.5 -92t-74 -78l-105 72q47 66 72.5 135.5t25.5 150.5v151h181v-148z" />
    <glyph glyph-name="uni0507" unicode="&#x507;" horiz-adv-x="909" 
d="M181 441l1 150h174q100 0 143.5 44t43.5 120q0 39 -10.5 71.5t-33 56t-58 36.5t-85.5 13h-232v150h232q175 0 270 -84t95 -237q0 -83 -41.5 -140.5t-121.5 -92.5q45 -15 76 -40.5t50 -59t27.5 -74t8.5 -85.5v-97q0 -18 2.5 -39.5t9 -42.5t17.5 -40t28 -31v-19h-182
q-19 13 -29.5 37.5t-15 50.5t-5.5 49.5t-1 35.5v95q0 81 -42 127t-123 46h-198zM882 48q0 -45 -11.5 -94t-34 -97t-54.5 -92t-74 -78l-105 72q47 66 72.5 135.5t25.5 150.5v151h181v-148z" />
    <glyph glyph-name="uni0508" unicode="&#x508;" horiz-adv-x="1709" 
d="M899 1298h-376v-530q0 -194 -21.5 -338.5t-69 -240t-124 -142.5t-186.5 -47h-44v157h34q60 0 103.5 34.5t71 108.5t40.5 189.5t13 278.5v688h744v-1110q0 -47 8.5 -85.5t26 -66t42 -43t55.5 -15.5q54 1 96.5 28.5t71.5 78.5t44.5 123.5t16.5 162.5q2 201 -50 402l177 1
q23 -98 40.5 -199t15.5 -204q-2 -139 -36 -242.5t-90.5 -171.5t-130.5 -102t-155 -34q-72 -2 -129 18.5t-97.5 65t-63.5 114.5t-27 169v952z" />
    <glyph glyph-name="uni0509" unicode="&#x509;" horiz-adv-x="1430" 
d="M875 1082v-737q0 -48 9 -87.5t27 -68t43 -44t57 -15.5q43 1 76.5 26t56.5 71t35.5 111t13.5 146q2 95 -11 191t-39 190h170q11 -46 21.5 -93t19 -95t13 -96.5t3.5 -96.5q-2 -128 -32 -223t-79.5 -157.5t-113.5 -93.5t-134 -31q-70 -2 -126.5 18.5t-96.5 65t-63 114.5
t-26 168v584h-244v-307q0 -154 -17.5 -270.5t-56.5 -194.5t-102 -117.5t-154 -39.5h-48l3 165l35 1q45 0 76 26t50.5 81.5t28.5 142t9 206.5v460h596z" />
    <glyph glyph-name="uni050A" unicode="&#x50a;" horiz-adv-x="1771" 
d="M1097 1456v-1110q0 -47 8.5 -85.5t25.5 -66t41.5 -43t55.5 -15.5q55 1 97.5 28.5t71.5 78.5t44.5 123.5t16.5 162.5q2 100 -11.5 201t-39.5 201l178 1q23 -98 41.5 -199t16.5 -204q-2 -139 -36.5 -242.5t-91.5 -171.5t-131 -102t-156 -34q-71 -2 -127.5 18.5t-97 65
t-63.5 114.5t-27 169v295h-573v-641h-185v1456h185v-658h573v658h184z" />
    <glyph glyph-name="uni050B" unicode="&#x50b;" horiz-adv-x="1467" 
d="M717 461h-402v-461h-176v1082h176v-470h402v470h176v-737q0 -48 9 -87.5t27 -68t43 -44t57 -15.5q43 1 77 26t57 71t35.5 111t13.5 146q2 95 -11.5 191t-38.5 190h169q11 -46 22 -93t19 -95t13 -96.5t4 -96.5q-2 -128 -32 -223t-79.5 -157.5t-114 -93.5t-134.5 -31
q-70 -2 -126.5 18.5t-96.5 65t-63 114.5t-26 168v116z" />
    <glyph glyph-name="uni050C" unicode="&#x50c;" horiz-adv-x="1108" 
d="M606 -21q-110 0 -200.5 47t-155.5 129.5t-101 195.5t-36 246v262q0 133 36 246t101 195.5t155.5 129.5t200.5 47q99 0 173.5 -22.5t131.5 -65.5l-56 -138q-54 33 -114.5 50.5t-134.5 17.5q-73 0 -130.5 -36.5t-97 -98.5t-60.5 -145.5t-21 -177.5v-264q0 -95 21 -179
t60.5 -146.5t97 -99t130.5 -36.5q109 2 167.5 78.5t61.5 210.5q1 90 -11 181t-31 180h176q16 -88 33 -179t16 -182q-2 -113 -36 -196.5t-90.5 -139t-130.5 -83t-155 -27.5z" />
    <glyph glyph-name="uni050D" unicode="&#x50d;" horiz-adv-x="926" 
d="M519 130q39 1 65 13t41.5 34t22.5 53.5t8 70.5q0 57 -4 118t-12 118h170q9 -58 16 -117.5t6 -118.5q-2 -82 -26 -142.5t-65.5 -100.5t-98 -59.5t-123.5 -19.5q-101 0 -179 44t-131.5 118.5t-81 172.5t-27.5 206v42q0 108 26.5 206t78 172t126 118t170.5 44
q82 0 141.5 -17.5t98.5 -48.5l-41 -144q-38 27 -89 42.5t-110 15.5q-60 0 -102.5 -34.5t-69.5 -90t-40 -125t-13 -138.5v-42q0 -71 13.5 -140.5t42.5 -125t75 -90t112 -34.5z" />
    <glyph glyph-name="uni050E" unicode="&#x50e;" horiz-adv-x="1262" 
d="M437 1298h-387v158h968v-158h-397v-952q0 -47 9 -85.5t26 -66t41.5 -43t55.5 -15.5q55 1 97 28.5t71 78.5t44.5 123.5t17.5 162.5q2 100 -11.5 201t-39.5 201l177 1q23 -98 41 -199t15 -204q-2 -139 -36 -242.5t-90.5 -171.5t-130.5 -102t-155 -34q-71 -2 -128 18.5
t-97.5 65t-63.5 114.5t-27 169v952z" />
    <glyph glyph-name="uni050F" unicode="&#x50f;" horiz-adv-x="1144" 
d="M371 932h-291v150h761v-150h-293v-587q0 -48 9 -87.5t26.5 -68t42.5 -44t57 -15.5q88 2 134 80.5t48 215.5q2 79 -11 162.5t-38 162.5h169q11 -39 22 -79.5t19 -81.5t13 -82t4 -82q-2 -113 -32 -197t-79.5 -139.5t-114 -83t-134.5 -27.5q-70 -2 -126 18.5t-96 65
t-63 114.5t-27 168v587z" />
    <glyph glyph-name="uni0510" unicode="&#x510;" horiz-adv-x="1208" 
d="M621 663q-142 0 -215 -63t-73 -198q0 -58 20 -106.5t58.5 -84t95 -55.5t129.5 -20q64 0 116 21t89 57.5t57 85.5t20 104h185q0 -112 -40.5 -192t-106.5 -131.5t-150 -76t-170 -24.5q-107 0 -196.5 28.5t-154 82.5t-101 133.5t-36.5 181.5q0 128 60 213.5t173 127.5
q-101 48 -158 131t-57 184q0 102 33.5 179.5t95 130t148 79t193.5 26.5q91 0 173 -28t143.5 -80.5t97.5 -127.5t36 -168h-184q0 53 -21 98t-57 78t-84.5 51.5t-103.5 18.5q-74 0 -128 -20.5t-88.5 -55t-51 -80.5t-16.5 -98q0 -54 15 -98.5t47.5 -77t83.5 -50.5t123 -18h156
v-158h-156z" />
    <glyph glyph-name="uni2000" unicode="&#x2000;" horiz-adv-x="917" 
 />
    <glyph glyph-name="uni2001" unicode="&#x2001;" horiz-adv-x="1795" 
 />
    <glyph glyph-name="uni2002" unicode="&#x2002;" horiz-adv-x="917" 
 />
    <glyph glyph-name="uni2003" unicode="&#x2003;" horiz-adv-x="1795" 
 />
    <glyph glyph-name="uni2004" unicode="&#x2004;" horiz-adv-x="625" 
 />
    <glyph glyph-name="uni2005" unicode="&#x2005;" horiz-adv-x="478" 
 />
    <glyph glyph-name="uni2006" unicode="&#x2006;" horiz-adv-x="332" 
 />
    <glyph glyph-name="uni2007" unicode="&#x2007;" horiz-adv-x="1007" 
 />
    <glyph glyph-name="uni2008" unicode="&#x2008;" horiz-adv-x="510" 
 />
    <glyph glyph-name="uni2009" unicode="&#x2009;" horiz-adv-x="391" 
 />
    <glyph glyph-name="uni200A" unicode="&#x200a;" horiz-adv-x="216" 
 />
    <glyph glyph-name="uni200B" unicode="&#x200b;" horiz-adv-x="40" 
 />
    <glyph glyph-name="endash" unicode="&#x2013;" horiz-adv-x="1172" 
d="M1002.61 651h-841.208v151h841.208v-151z" />
    <glyph glyph-name="emdash" unicode="&#x2014;" horiz-adv-x="1389" 
d="M1280.78 651h-1121.58v151h1121.58v-151z" />
    <glyph glyph-name="underscoredbl" unicode="&#x2017;" horiz-adv-x="826" 
d="M803 -404h-781v151h781v-151zM803 -151h-781v151h781v-151z" />
    <glyph glyph-name="quoteleft" unicode="&#x2018;" horiz-adv-x="398" 
d="M100 1193q0 45 10.5 94.5t30.5 97.5t49 92t67 78l100 -72q-40 -66 -61 -135.5t-21 -151.5v-123h-175v120z" />
    <glyph glyph-name="quoteright" unicode="&#x2019;" horiz-adv-x="398" 
d="M312 1408q0 -46 -10.5 -95.5t-30.5 -97.5t-49 -91.5t-67 -77.5l-99 72q39 66 60 135.5t21 151.5v131h175v-128z" />
    <glyph glyph-name="quotesinglbase" unicode="&#x201a;" horiz-adv-x="399" 
d="M305 78q0 -45 -10.5 -94t-30.5 -97t-49.5 -92t-66.5 -78l-100 73q40 66 60 135.5t20 149.5v106h177v-103z" />
    <glyph glyph-name="quotereversed" unicode="&#x201b;" horiz-adv-x="399" 
d="M44.0195 1408q0 -46 10.499 -95.5t30.498 -97.5t48.9971 -91.5t66.9961 -77.5l98.9941 72q-38.998 66 -59.9971 135.5q-20.998 69.5 -20.998 151.5v131h-174.989v-128z" />
    <glyph glyph-name="quotedblleft" unicode="&#x201c;" horiz-adv-x="684" 
d="M109 1193q0 45 10.5 94.5t30.5 97.5t49 92t67 78l100 -72q-40 -66 -61 -135.5t-21 -151.5v-123h-175v120zM394 1193q0 45 10.5 94.5t30.5 97.5t49 92t67 78l100 -72q-40 -66 -61 -135.5t-21 -151.5v-123h-175v120z" />
    <glyph glyph-name="quotedblright" unicode="&#x201d;" horiz-adv-x="691" 
d="M324 1408q0 -46 -10.5 -95.5t-30.5 -97.5t-49 -91.5t-67 -77.5l-99 72q39 66 60 135.5t21 151.5v131h175v-128zM602 1408q0 -46 -10.5 -95.5t-30.5 -97.5t-49 -91.5t-67 -77.5l-99 72q39 66 60 135.5t21 151.5v131h175v-128z" />
    <glyph glyph-name="quotedblbase" unicode="&#x201e;" horiz-adv-x="668" 
d="M305 78q0 -47 -10.5 -99t-30.5 -102t-49.5 -96t-66.5 -82l-100 72q40 71 60 144.5t20 159.5v171h177v-168zM574 78q0 -47 -10.5 -99t-30.5 -102t-49.5 -96t-67.5 -82l-99 72q40 71 60 144.5t20 159.5v171h177v-168z" />
    <glyph glyph-name="dagger" unicode="&#x2020;" horiz-adv-x="989" 
d="M911 929h-330v-929h-177v929h-324v153h324v374h177v-374h330v-153z" />
    <glyph glyph-name="daggerdbl" unicode="&#x2021;" horiz-adv-x="1024" 
d="M925 0h-329v-416h-178v416h-324v151h324v778h-324v153h324v374h178v-374h329v-153h-329v-778h329v-151z" />
    <glyph glyph-name="bullet" unicode="&#x2022;" horiz-adv-x="690" 
d="M138 793q0 43 14.5 79.5t40.5 62.5t63.5 41t84.5 15q48 0 86 -15t64.5 -41t40.5 -62.5t14 -79.5v-61q0 -43 -14 -79t-40.5 -62.5t-64 -41t-85.5 -14.5q-47 0 -84.5 14.5t-64 41t-41 62.5t-14.5 79v61z" />
    <glyph glyph-name="uni2025" unicode="&#x2025;" horiz-adv-x="861" 
d="M143 97q0 48 28.5 80t85.5 32t86.5 -32t29.5 -80q0 -46 -29.5 -77t-86.5 -31t-85.5 31t-28.5 77zM517 97q0 48 28.5 80t85.5 32t86.5 -32t29.5 -80q0 -46 -29.5 -77t-86.5 -31t-85.5 31t-28.5 77z" />
    <glyph glyph-name="ellipsis" unicode="&#x2026;" horiz-adv-x="1209" 
d="M143 97q0 48 28.5 80t85.5 32t86.5 -32t29.5 -80q0 -46 -29.5 -77t-86.5 -31t-85.5 31t-28.5 77zM517 97q0 48 28.5 80t85.5 32t86.5 -32t29.5 -80q0 -46 -29.5 -77t-86.5 -31t-85.5 31t-28.5 77zM873 97q0 48 28.5 80t85.5 32t86.5 -32t29.5 -80q0 -46 -29.5 -77
t-86.5 -31t-85.5 31t-28.5 77z" />
    <glyph glyph-name="perthousand" unicode="&#x2030;" horiz-adv-x="1677" 
d="M704 357q0 61 17.5 116t50.5 95.5t80 64.5t107 24q63 0 111 -30.5t79 -82.5q30 51 78 82t111 31q60 0 107.5 -24t80.5 -64.5t50 -95.5t17 -116v-78q0 -62 -17 -116.5t-49.5 -95t-79.5 -64.5t-107 -24q-64 0 -112.5 30.5t-78.5 81.5q-31 -51 -78.5 -81.5t-110.5 -30.5
q-60 0 -107.5 24t-80.5 64.5t-50.5 95t-17.5 116.5v78zM70 1176q0 62 17.5 116.5t50.5 95.5t80 65t106 24q60 0 107.5 -24t80.5 -65t50.5 -95.5t17.5 -116.5v-77q0 -61 -17 -115.5t-50 -95t-80 -64.5t-107 -24t-107.5 24t-80.5 64.5t-50.5 95t-17.5 115.5v77zM834 279
q0 -35 7.5 -67.5t23.5 -57.5t39.5 -40t55.5 -15t55.5 15t39 40t23 57.5t7.5 67.5v78q0 35 -7.5 67.5t-23.5 57.5t-39.5 40t-55.5 15t-55.5 -15t-39 -40t-23 -57.5t-7.5 -67.5v-78zM1214 279q0 -35 8 -67.5t23.5 -57.5t39 -40t55.5 -15q31 0 54.5 15t39.5 40t23.5 57.5
t7.5 67.5v78q0 35 -7.5 67.5t-23.5 57.5t-39.5 40t-55.5 15t-55 -15t-39 -40t-23.5 -57.5t-7.5 -67.5v-78zM200 1099q0 -35 7.5 -67t23.5 -57t39.5 -40t55.5 -15t55.5 15t39 39.5t23 57t7.5 67.5v77q0 35 -8 68t-23.5 58t-39.5 40t-56 15t-55 -15t-38.5 -40t-23 -58
t-7.5 -68v-77zM382 110l-96 66l597 1138l97 -66z" />
    <glyph glyph-name="guilsinglleft" unicode="&#x2039;" horiz-adv-x="557" 
d="M277 550l211 -397h-129l-248 388v19l248 389h129z" />
    <glyph glyph-name="guilsinglright" unicode="&#x203a;" horiz-adv-x="557" 
d="M223 949l248 -389v-19l-248 -389h-131l211 398l-211 399h131z" />
    <glyph glyph-name="fraction" unicode="&#x2044;" horiz-adv-x="826" 
d="M165 110l-96 66l597 1138l97 -66z" />
    <glyph glyph-name="uni2074" unicode="&#x2074;" horiz-adv-x="675" 
d="M525 966h84v-130h-84v-169h-148v169h-308l-5 102l310 518h151v-490zM210 966h167v279l-10 -18z" />
    <glyph glyph-name="nsuperior" unicode="&#x207f;" horiz-adv-x="766" 
d="M243 1451l28 -119q29 63 73.5 98.5t103.5 35.5q49 0 88.5 -17.5t67.5 -55t43 -95.5t15 -139v-508h-162v476q0 54 -7.5 91.5t-21.5 60.5t-33.5 33t-43.5 10q-42 0 -69 -26.5t-42 -71.5v-573h-161v800h121z" />
    <glyph glyph-name="lira" unicode="&#x20a4;" horiz-adv-x="1046" 
d="M693 470h-277l2 -68q-1 -70 -14.5 -134t-40.5 -111h615l-1 -157h-878v157h58q21 6 36 32.5t24 62.5t12.5 76t3.5 73l-2 69h-136v125h132l-4 136h-128v125h125l-5 183q0 103 29.5 184.5t81 137.5t122 85.5t153.5 29.5t148.5 -28.5t110.5 -79.5t69 -122.5t24 -158.5h-182
q0 63 -16 106.5t-42 71.5t-59.5 40.5t-69.5 12.5q-38 0 -71.5 -18.5t-58.5 -54t-40 -87.5t-15 -119l5 -183h289v-125h-285l4 -136h281v-125z" />
    <glyph glyph-name="peseta" unicode="&#x20a7;" horiz-adv-x="1454" 
d="M331 565v-565h-176v1456h327q105 0 179 -33.5t120.5 -93t67.5 -141t21 -177.5t-21 -178t-67.5 -141.5t-120.5 -93t-179 -33.5h-151zM331 717h151q69 0 111 25t64 65.5t29 93t7 108.5t-7 109t-29 94.5t-64 66.5t-111 25h-151v-587zM1155 1344v-262h163v-143h-163v-671
q0 -42 8 -67.5t21 -39.5t29.5 -18.5t34.5 -4.5t40 4.5t31 7.5l-2 -150q-18 -6 -47.5 -13t-75.5 -7q-43 0 -82 14.5t-68.5 48.5t-47 89.5t-17.5 136.5v670h-165v143h165v262h176z" />
    <glyph glyph-name="Euro" unicode="&#x20ac;" horiz-adv-x="1011" 
d="M743 541h-311q1 -103 21 -179t55.5 -126.5t85 -75t110.5 -24.5q49 0 95 8.5t88 25.5l20 -160q-48 -14 -99.5 -22t-105.5 -8q-99 0 -181 35t-142 105t-94 175.5t-36 245.5h-146v124h146v137h-146v125h146q4 136 39 239t94 172t140.5 103.5t178.5 34.5q54 0 104 -8.5
t102 -22.5l-20 -162q-42 16 -88.5 25.5t-95.5 9.5q-121 0 -193 -96t-78 -295h311v-125h-311v-137h311v-124z" />
    <glyph glyph-name="uni2105" unicode="&#x2105;" horiz-adv-x="1312" 
d="M599 1054q0 -52 -16 -98.5t-46.5 -81t-74.5 -54.5t-99 -20q-56 0 -100.5 24t-75 64.5t-46.5 95t-16 115.5v77q0 62 16 116.5t46.5 95.5t74 65t99.5 24t100 -20.5t75 -55t47 -81.5t16 -99h-130q0 27 -6.5 51.5t-20 43t-33.5 30t-48 11.5q-27 0 -47 -15t-33 -40t-19.5 -58
t-6.5 -68v-77q0 -35 6.5 -67t20 -57t34 -40t47.5 -15t47 12t33 31.5t19.5 43t6.5 47.5h130zM695 357q0 61 17.5 116t50.5 95.5t80 64.5t106 24q60 0 107.5 -24t80.5 -64.5t50.5 -95.5t17.5 -116v-78q0 -62 -17.5 -116.5t-50 -95t-79.5 -64.5t-107 -24t-107.5 24t-80.5 64.5
t-50.5 95t-17.5 116.5v78zM825 279q0 -35 7.5 -67.5t23.5 -57.5t39.5 -40t55.5 -15t55.5 15t39 40t23 57.5t7.5 67.5v78q0 35 -8 67.5t-23.5 57.5t-39.5 40t-56 15t-55 -15t-38.5 -40t-23 -57.5t-7.5 -67.5v-78zM397 110l-96 66l597 1138l97 -66z" />
    <glyph glyph-name="uni2113" unicode="&#x2113;" horiz-adv-x="865" 
d="M626 -21q-89 0 -155.5 32t-110 91.5t-65 143t-21.5 185.5v12q-78 -23 -162 -23v176q88 0 162 31v549q0 89 18 159.5t51 119t80.5 74.5t107.5 26q52 0 95.5 -22t75.5 -62.5t50 -99.5t18 -132v-41q0 -89 -21 -182.5t-61.5 -182.5t-100 -167t-136.5 -135v-100
q0 -69 8.5 -123.5t29 -92.5t54 -58.5t83.5 -20.5v-157zM451 765q37 47 64 101t44.5 110.5t26 112.5t8.5 107v43q0 82 -18 120t-45 38q-80 0 -80 -221v-411z" />
    <glyph glyph-name="uni2116" unicode="&#x2116;" horiz-adv-x="1815" 
d="M1669 412h-523v142h523v-142zM1115 1127q0 77 20.5 140.5t58.5 109t92 70.5t122 25q69 0 123.5 -25t92.5 -70.5t58 -109t20 -140.5v-98q0 -77 -20 -140.5t-58 -108.5t-92 -69.5t-122 -24.5t-123 24.5t-93 69.5t-58.5 108.5t-20.5 140.5v98zM1269 1029q0 -46 8.5 -83.5
t26 -64.5t44 -42t62.5 -15q35 0 61 15t43 42t25.5 64.5t8.5 83.5v98q0 45 -8.5 82.5t-26 64.5t-43.5 42t-62 15q-35 0 -61 -15t-43.5 -42t-26 -64.5t-8.5 -82.5v-98zM989 0h-195l-467 1134v-1134h-176v1456h194l470 -1137v1137h174v-1456z" />
    <glyph glyph-name="trademark" unicode="&#x2122;" horiz-adv-x="1121" 
d="M846 1313l-114 -394h-44l-114 393v-393h-81v537h101l116 -399l116 399h101v-537h-81v394zM428 1375h-120v-456h-82v456h-121v81h323v-81z" />
    <glyph glyph-name="estimated" unicode="&#x212e;" horiz-adv-x="1303" 
d="M1046 94q-85 -53 -178 -83.5t-192 -30.5q-72 0 -139.5 20t-125.5 57t-106 88t-82 113.5t-52.5 134t-18.5 148.5t20.5 148.5t57 134t86 113.5t108 88t122.5 57t130 20q103 0 193 -41t157 -113t106 -171t39 -216v-47h-768v-328q55 -51 125 -80.5t148 -29.5q94 0 186.5 29.5
t181.5 92.5zM676 1008q-75 0 -145.5 -32.5t-127.5 -89.5v-277h540v286q-53 52 -121.5 82.5t-145.5 30.5z" />
    <glyph glyph-name="oneeighth" unicode="&#x215b;" horiz-adv-x="1365" 
d="M411 646h-149v601l-176 -57v128l308 117h17v-789zM356 110l-96 66l597 1138l97 -66zM1235 579q0 -59 -26.5 -103t-74.5 -70q54 -27 85.5 -75.5t31.5 -114.5q0 -57 -19 -99.5t-52.5 -71t-79.5 -42.5t-99 -14q-54 0 -99.5 14t-79.5 42.5t-53 71t-19 99.5q0 66 31 114.5
t85 75.5q-48 26 -74.5 70t-26.5 103q0 54 17.5 95t48.5 69t74.5 42.5t94.5 14.5q52 0 95 -14.5t74 -42.5t48.5 -69t17.5 -95zM1103 228q0 52 -28.5 81t-74.5 29q-47 0 -74 -29t-27 -81q0 -53 27 -82t75 -29q47 0 74.5 29t27.5 82zM1087 570q0 46 -22.5 73.5t-64.5 27.5
q-41 0 -63 -26.5t-22 -74.5q0 -46 22 -74t64 -28t64 28t22 74z" />
    <glyph glyph-name="threeeighths" unicode="&#x215c;" horiz-adv-x="1509" 
d="M268 1119h72q57 0 84 30.5t27 78.5q0 44 -24 73.5t-77 29.5q-42 0 -70 -24.5t-28 -67.5h-149q0 51 19 91.5t52 69.5t78 44.5t96 15.5q56 0 102.5 -14.5t79.5 -43t51.5 -70.5t18.5 -97t-29.5 -100.5t-85.5 -70.5q65 -21 95 -68t30 -116q0 -56 -20 -99t-55.5 -72
t-83.5 -44.5t-104 -15.5q-48 0 -93.5 13.5t-80.5 42t-56.5 72.5t-21.5 105h150q0 -45 28.5 -75t79.5 -30q54 0 81.5 30t27.5 81q0 63 -32.5 89t-89.5 26h-72v116zM519 110l-96 66l597 1138l97 -66zM1367 579q0 -59 -26.5 -103t-74.5 -70q54 -27 85.5 -75.5t31.5 -114.5
q0 -57 -19 -99.5t-52.5 -71t-79.5 -42.5t-99 -14q-54 0 -99.5 14t-79.5 42.5t-53 71t-19 99.5q0 66 31 114.5t85 75.5q-48 26 -74.5 70t-26.5 103q0 54 17.5 95t48.5 69t74.5 42.5t94.5 14.5q52 0 95 -14.5t74 -42.5t48.5 -69t17.5 -95zM1235 228q0 52 -28.5 81t-74.5 29
q-47 0 -74 -29t-27 -81q0 -53 27 -82t75 -29q47 0 74.5 29t27.5 82zM1219 570q0 46 -22.5 73.5t-64.5 27.5q-41 0 -63 -26.5t-22 -74.5q0 -46 22 -74t64 -28t64 28t22 74z" />
    <glyph glyph-name="fiveeighths" unicode="&#x215d;" horiz-adv-x="1508" 
d="M114 1042l42 402h407v-132h-285l-16 -170q14 8 44 18.5t66 10.5q109 0 168.5 -68.5t59.5 -189.5q0 -54 -15.5 -103t-46.5 -85.5t-78 -58.5t-111 -22q-49 0 -93.5 15t-79.5 44t-56.5 71.5t-23.5 96.5h146q5 -52 33 -75.5t74 -23.5q27 0 46.5 11t32 30t18 45t5.5 57
q0 62 -29.5 100.5t-86.5 38.5q-21 0 -36.5 -4t-27.5 -10t-21 -13.5t-17 -15.5zM490 110l-96 66l597 1138l97 -66zM1363 579q0 -59 -26.5 -103t-74.5 -70q54 -27 85.5 -75.5t31.5 -114.5q0 -57 -19 -99.5t-52.5 -71t-79.5 -42.5t-99 -14q-54 0 -99.5 14t-79.5 42.5t-53 71
t-19 99.5q0 66 31 114.5t85 75.5q-48 26 -74.5 70t-26.5 103q0 54 17.5 95t48.5 69t74.5 42.5t94.5 14.5q52 0 95 -14.5t74 -42.5t48.5 -69t17.5 -95zM1231 228q0 52 -28.5 81t-74.5 29q-47 0 -74 -29t-27 -81q0 -53 27 -82t75 -29q47 0 74.5 29t27.5 82zM1215 570
q0 46 -22.5 73.5t-64.5 27.5q-41 0 -63 -26.5t-22 -74.5q0 -46 22 -74t64 -28t64 28t22 74z" />
    <glyph glyph-name="seveneighths" unicode="&#x215e;" horiz-adv-x="1419" 
d="M616 1354l-287 -699h-157l288 659h-371v130h527v-90zM407 110l-96 66l597 1138l97 -66zM1300 579q0 -59 -26.5 -103t-74.5 -70q54 -27 85.5 -75.5t31.5 -114.5q0 -57 -19 -99.5t-52.5 -71t-79.5 -42.5t-99 -14q-54 0 -99.5 14t-79.5 42.5t-53 71t-19 99.5q0 66 31 114.5
t85 75.5q-48 26 -74.5 70t-26.5 103q0 54 17.5 95t48.5 69t74.5 42.5t94.5 14.5q52 0 95 -14.5t74 -42.5t48.5 -69t17.5 -95zM1168 228q0 52 -28.5 81t-74.5 29q-47 0 -74 -29t-27 -81q0 -53 27 -82t75 -29q47 0 74.5 29t27.5 82zM1152 570q0 46 -22.5 73.5t-64.5 27.5
q-41 0 -63 -26.5t-22 -74.5q0 -46 22 -74t64 -28t64 28t22 74z" />
    <glyph glyph-name="partialdiff" unicode="&#x2202;" horiz-adv-x="1019" 
d="M499 1022q68 0 133.5 -38.5t113.5 -106.5q-9 110 -38 198.5t-70.5 150.5t-93 95.5t-106.5 33.5q-63 0 -119.5 -16t-116.5 -43l-12 151q25 12 51 24.5t57 22t69 16t86 6.5q121 0 209 -59t146 -167t86 -261t28 -340v-59q0 -138 -27.5 -257t-79.5 -206.5t-127.5 -137.5
t-172.5 -50t-172.5 40t-127.5 111t-79 167.5t-27 209.5v23q0 105 26 195t76 156t122.5 103.5t165.5 37.5zM517 870q-61 0 -105 -27.5t-72 -74.5t-41.5 -108.5t-13.5 -129.5v-23q0 -76 13.5 -144.5t41.5 -120t71.5 -82t103.5 -30.5q61 0 105 36t72 98.5t41 147t13 181.5v66
q-3 25 -16.5 61.5t-40.5 69.5t-69.5 56.5t-102.5 23.5z" />
    <glyph glyph-name="product" unicode="&#x220f;" horiz-adv-x="1259" 
d="M1099 -213h-177v1517h-585v-1517h-177v1669h939v-1669z" />
    <glyph glyph-name="summation" unicode="&#x2211;" horiz-adv-x="1052" 
d="M780 577l-499 -694h748v-152h-949v143l514 716l-514 722v144h881v-152h-681l500 -702v-25z" />
    <glyph glyph-name="minus" unicode="&#x2212;" horiz-adv-x="1023" 
d="M863 651h-701v151h701v-151z" />
    <glyph glyph-name="radical" unicode="&#x221a;" horiz-adv-x="1098" 
d="M508 316l358 1140h180l-469 -1456h-132l-212 628h-160v154h289z" />
    <glyph glyph-name="infinity" unicode="&#x221e;" horiz-adv-x="1790" 
d="M1684 527q0 -109 -30 -208.5t-84 -175t-130 -120t-169 -44.5q-76 0 -135.5 31t-106 80.5t-81 111t-58.5 121.5q-24 -60 -58.5 -121.5t-80.5 -111t-106 -80.5t-135 -31q-93 0 -169.5 44.5t-130.5 120t-84 175t-30 208.5v26q0 109 30 208.5t84 175t130 120.5t168 45
q76 0 136 -31t106.5 -80.5t81 -110.5t58.5 -121q24 60 58.5 121t81 110.5t107 80.5t136.5 31q92 0 167.5 -45t129.5 -120.5t84 -175t30 -208.5v-26zM272 527q0 -81 15.5 -153.5t46 -126.5t75 -85.5t101.5 -31.5q45 0 82.5 23t67.5 59t53 80.5t40 88t27.5 80.5t15.5 59v42
q-5 21 -15.5 57.5t-27.5 80t-40.5 88t-53.5 80.5t-68 59t-83 23q-57 0 -101 -32t-74 -86t-45.5 -126t-15.5 -153v-26zM1508 553q0 81 -16 153t-46 126t-74 86t-99 32q-46 0 -83.5 -23t-68 -59t-54 -80.5t-40.5 -88t-27.5 -80t-15.5 -57.5v-42q5 -22 15.5 -59t27.5 -80.5
t40.5 -88t53.5 -80.5t67.5 -59t82.5 -23q56 0 100 31.5t74.5 85.5t46.5 126.5t16 153.5v26z" />
    <glyph glyph-name="integral" unicode="&#x222b;" horiz-adv-x="482" 
d="M339 -107q0 -169 -73 -249.5t-203 -80.5q-26 0 -50 5t-48 15l16 145q12 -5 32 -9t32 -4q56 0 87 42.5t31 135.5v1305q0 175 78 267t214 92q32 0 62.5 -6t61.5 -15l-23 -142q-13 5 -31 8t-41 3q-72 0 -108.5 -54.5t-36.5 -152.5v-1305v0z" />
    <glyph glyph-name="approxequal" unicode="&#x2248;" horiz-adv-x="1009" 
d="M104 901q40 51 96 80t111 29q34 1 59 -4.5t46.5 -15.5t43 -23.5t48.5 -29.5q25 -15 44.5 -27.5t40 -22t43.5 -14.5t55 -5q55 0 106.5 34t91.5 94l-1 -190q-40 -51 -91.5 -80t-106.5 -29q-31 0 -54.5 5t-43.5 14.5t-40 22t-45 27.5q-27 16 -48.5 30t-43 24t-46.5 15.5
t-58 4.5q-55 0 -111.5 -34t-96.5 -94zM105 483q40 51 95.5 80.5t110.5 29.5q33 1 58 -4.5t47 -15.5t43.5 -23.5t48.5 -29.5q25 -15 45 -28t40 -22t43.5 -14.5t54.5 -5.5q55 0 106.5 34t91.5 94v-189q-40 -51 -91.5 -80t-106.5 -29q-31 0 -54.5 5t-43.5 14.5t-40 22t-45 27.5
q-27 16 -48.5 29.5t-43 23.5t-46.5 15.5t-58 4.5q-55 0 -111.5 -34t-96.5 -94z" />
    <glyph glyph-name="notequal" unicode="&#x2260;" horiz-adv-x="981" 
d="M849 399h-442l-120 -243l-87 59l91 184h-143v160h222l126 255h-348v161h428l130 262l86 -59l-101 -203h158v-161h-237l-126 -255h363v-160z" />
    <glyph glyph-name="lessequal" unicode="&#x2264;" horiz-adv-x="913" 
d="M253 676.615l510 -227.706v-176.404l-684 341.109v131.403l684 340.209v-176.404zM771 2h-701v151h701v-151z" />
    <glyph glyph-name="greaterequal" unicode="&#x2265;" horiz-adv-x="943" 
d="M678 700.916l-542 232.206v171.005l720 -340.209v-131.404l-720 -341.109v172.805zM837 1h-701v151h701v-151z" />
    <glyph glyph-name="lozenge" unicode="&#x25ca;" horiz-adv-x="906" 
d="M386 1456h132l336 -729l-332 -727h-133l-337 727zM451 1240l-219 -513l224 -513l219 513z" />
    <glyph glyph-name="colon.lnum" unicode="&#xee01;" horiz-adv-x="556" 
d="M180 275q0 48 28.5 80t85.5 32t86.5 -32t29.5 -80q0 -46 -29.5 -77t-86.5 -31t-85.5 31t-28.5 77zM179 1157q0 48 28.5 80t85.5 32t86.5 -32t29.5 -80q0 -46 -29.5 -77t-86.5 -31t-85.5 31t-28.5 77z" />
    <glyph glyph-name="quotedblx" unicode="&#xee02;" horiz-adv-x="612" 
d="M242 633h-132v449h132v-449zM517 633h-132v449h132v-449z" />
    <glyph glyph-name="commaaccent" unicode="&#xf6c3;" horiz-adv-x="482" 
d="M319 160q0 -40 -8 -83.5t-24.5 -86.5t-41 -82t-58.5 -69l-99 72q32 58 47.5 117.5t15.5 128.5v82h168v-79z" />
    <glyph glyph-name="uniFEFF" unicode="&#xfeff;" horiz-adv-x="40" 
 />
    <glyph glyph-name="uniFFFC" unicode="&#xfffc;" horiz-adv-x="2099" 
d="M825 468q0 -49 -16.5 -89t-47 -69t-72.5 -45t-93 -16q-52 0 -94.5 16t-73 45t-47.5 69t-17 89v112q0 48 17 88.5t47 69.5t72.5 45t93.5 16t93.5 -16t73 -45t47.5 -69.5t17 -88.5v-112zM892 252v549h188q98 0 155 -36.5t57 -113.5q0 -38 -21 -69t-63 -47q50 -13 76 -48
t26 -80q0 -77 -52.5 -116t-144.5 -39h-221zM733 580q0 69 -37 108t-102 39q-64 0 -101 -39t-37 -108v-112q0 -69 37 -108t103 -39q64 0 100.5 39t36.5 108v112zM1687 803h92v-378q0 -40 -14 -71.5t-39 -53.5t-59.5 -34t-74.5 -12q-88 0 -142.5 40.5t-54.5 123.5h93
q0 -47 28 -69t76 -22q41 0 68 27t27 71v378zM91 -398v315h113v-202h196v-113h-309zM1720 -398v113h199v202h111v-315h-310zM91 1169v285h309v-116h-196v-169h-113zM1720 1338v116h310v-285h-111v169h-199zM987 496v-169h126q52 0 77.5 22t25.5 61q0 38 -24.5 61t-73.5 25h-5
h-126zM1321 1338v116h278v-116h-278zM922 1338v116h277v-116h-277zM523 1338v116h276v-116h-276zM1321 -398v113h278v-113h-278zM922 -398v113h277v-113h-277zM523 -398v113h276v-113h-276zM987 566h93q118 0 118 80q0 41 -29 56t-89 15h-93v-151zM204 416h-113v252h113
v-252zM204 794h-113v250h113v-250zM204 41h-113v249h113v-249zM2030 416h-111v252h111v-252zM2030 794h-111v250h111v-250zM2030 41h-111v249h111v-249z" />
    <glyph glyph-name="uniFFFD" unicode="&#xfffd;" horiz-adv-x="2101" 
d="M1048 1618l959 -975l-959 -975l-956 975zM1131 402q0 25 2.5 45t10 36.5t20 30.5t33.5 28q34 18 64 44t52.5 57.5t36 68.5t13.5 78q0 64 -21.5 115.5t-62 88t-99.5 56t-133 19.5q-64 0 -119 -15t-96.5 -47.5t-65.5 -83t-25 -120.5h203q1 27 9.5 46.5t23 32t32.5 18.5
t38 6q57 0 85 -32t28 -84t-26.5 -90.5t-66.5 -64.5q-35 -25 -61 -46.5t-43 -47t-25.5 -58.5t-8.5 -81h202zM1131 311h-202v-170h202v170zM1056 -551h4v-4h-4v4zM1054 2163h4v-4h-4v4z" />
    <glyph glyph-name="zero.sup" horiz-adv-x="675" 
d="M588 325q0 -86 -18 -149t-51 -104.5t-79 -62t-102 -20.5t-102.5 20.5t-80 62t-52 104.5t-18.5 149v138q0 85 18.5 148.5t51.5 105.5t79 62.5t102 20.5t102.5 -20.5t79.5 -62.5t51.5 -105.5t18.5 -148.5v-138zM439 478q0 100 -26.5 146t-76.5 46q-48 0 -75.5 -46
t-27.5 -146v-167q0 -101 28 -147.5t77 -46.5q48 0 74.5 46.5t26.5 147.5v167z" />
    <glyph glyph-name="largerighthook" horiz-adv-x="698" 
d="M-58 833h173q121 0 215.5 -39t159.5 -113.5t98.5 -181.5t33.5 -243q0 -130 -26.5 -231.5t-77.5 -171t-126 -106t-172 -36.5l-2 147q65 0 108.5 28.5t70 80.5t37.5 125.5t11 163.5q-1 202 -80 308.5t-250 106.5h-173v162z" />
    <glyph glyph-name="circumflexgravecomb" horiz-adv-x="930" 
d="M748 1233h-184l-137 158l-138 -158h-182l250 263h139zM172 1408h-130l-174 258h187z" />
    <glyph glyph-name="circumflexacutecomb" horiz-adv-x="932" 
d="M370 1514h140l250 -262h-184l-136 158l-137 -158h-185zM812 1685h188l-175 -259h-131z" />
    <glyph glyph-name="brevegravecomb" horiz-adv-x="824" 
d="M671 1456q0 -59 -20.5 -107.5t-58 -84t-91 -55t-120.5 -19.5t-120.5 19.5t-91 55t-58 84t-20.5 107.5h141q0 -30 8 -56.5t25.5 -47t46 -32.5t69.5 -12q40 0 68 12t46 32.5t26 47t8 56.5h142zM454 1451h-138l-182 206h201z" />
    <glyph glyph-name="commaaccentrotate" horiz-adv-x="485" 
d="M156 1295q0 45 12.5 89.5t31.5 84.5t42 72.5t45 53.5l100 -83q-32 -59 -43.5 -112t-11.5 -114v-120h-176v129z" />
    <glyph glyph-name="A.smcp" 
d="M722 279h-416l-92 -279h-179l403 1165h156l397 -1165h-178zM355 430h318l-158 485z" />
    <glyph glyph-name="B.smcp" horiz-adv-x="974" 
d="M131 0v1165h352q84 0 151.5 -19t115.5 -58.5t73.5 -99.5t25.5 -141q0 -80 -41.5 -143t-117.5 -97q46 -12 80.5 -39t57 -63.5t33.5 -80.5t11 -91q0 -83 -25 -145t-71.5 -104t-113 -63t-150.5 -21h-381zM307 530v-379h205q90 0 137 49t47 134q0 44 -10 80.5t-31.5 62
t-55 39.5t-80.5 14h-212zM307 671h195q77 2 123.5 44.5t46.5 123.5q0 91 -48.5 132t-140.5 41h-176v-341z" />
    <glyph glyph-name="C.smcp" horiz-adv-x="1005" 
d="M928 377q-8 -86 -36 -158t-78.5 -124t-123.5 -81.5t-171 -29.5q-96 0 -174 38.5t-133.5 109.5t-85.5 172.5t-30 226.5v101q0 125 30.5 226.5t86.5 173t136.5 110.5t179.5 39q94 0 165 -29.5t120.5 -82t77.5 -125.5t36 -161h-177q-6 57 -20.5 103t-40 77.5t-65 48.5
t-96.5 17q-65 0 -113 -27t-79.5 -78t-47.5 -124.5t-16 -166.5v-102q0 -89 14 -161.5t43.5 -125t76 -81t112.5 -28.5q61 0 102 16t67.5 46.5t41 75.5t21.5 104h177z" />
    <glyph glyph-name="D.smcp" horiz-adv-x="1008" 
d="M131 0v1165h305q106 0 193.5 -39t149.5 -111t96 -174t34 -228v-63q0 -126 -34 -227.5t-97 -173t-152.5 -110.5t-201.5 -39h-293zM307 1012v-861h117q80 0 138.5 27.5t96.5 79.5t56.5 125.5t18.5 166.5v65q0 192 -74 294.5t-224 102.5h-129z" />
    <glyph glyph-name="E.smcp" horiz-adv-x="878" 
d="M740 526h-433v-375h506v-151h-682v1165h676v-153h-500v-334h433v-152z" />
    <glyph glyph-name="F.smcp" horiz-adv-x="850" 
d="M726 499h-419v-499h-176v1165h661v-153h-485v-360h419v-153z" />
    <glyph glyph-name="G.smcp" horiz-adv-x="1043" 
d="M928 150q-16 -24 -44 -53t-73 -54t-110 -42t-154 -17q-99 0 -181.5 37.5t-142.5 109t-93.5 174.5t-33.5 235v84q0 132 29 235.5t84.5 175t136 109t184.5 37.5q94 0 164.5 -27.5t119 -76.5t76.5 -117t39 -148h-176q-7 46 -22 85.5t-41.5 69t-65 46t-92.5 16.5
q-67 0 -116 -27.5t-80.5 -79t-46.5 -126.5t-15 -170v-86q0 -97 19.5 -172.5t55.5 -127t87 -78.5t114 -27q49 0 83.5 7.5t57.5 18.5t37.5 24t24.5 24v238h-221v144h396v-441z" />
    <glyph glyph-name="H.smcp" horiz-adv-x="1093" 
d="M961 0h-176v498h-478v-498h-176v1165h176v-515h478v515h176v-1165z" />
    <glyph glyph-name="I.smcp" horiz-adv-x="454" 
d="M316 0h-177v1165h177v-1165z" />
    <glyph glyph-name="J.smcp" horiz-adv-x="860" 
d="M558 1165h179v-827q0 -83 -25 -148.5t-69.5 -111.5t-105.5 -70t-133 -24q-75 0 -139.5 21t-112 63.5t-74.5 108t-27 154.5h177q0 -52 13 -89t36.5 -61t55.5 -35t71 -11q70 0 112 53t42 150v827z" />
    <glyph glyph-name="K.smcp" horiz-adv-x="969" 
d="M424 511l-117 -131v-380h-176v1165h176v-540l98 129l316 411h214l-394 -517l420 -648h-213z" />
    <glyph glyph-name="L.smcp" horiz-adv-x="842" 
d="M307 151h482v-151h-658v1165h176v-1014z" />
    <glyph glyph-name="M.smcp" horiz-adv-x="1336" 
d="M359 1165l309 -911l308 911h228v-1165h-175v401l17 497l-314 -898h-129l-315 893l18 -492v-401h-175v1165h228z" />
    <glyph glyph-name="N.smcp" horiz-adv-x="1092" 
d="M960 0h-176l-477 876v-876h-176v1165h176l477 -877v877h176v-1165z" />
    <glyph glyph-name="O.smcp" horiz-adv-x="1063" 
d="M964 548q0 -132 -31 -236.5t-87.5 -177t-136 -111.5t-177.5 -39q-95 0 -175 39t-137.5 111.5t-89.5 177t-32 236.5v67q0 132 32 236.5t89 178t136.5 112.5t174.5 39q98 0 178 -39t137 -112.5t88 -178t31 -236.5v-67zM790 617q0 198 -68 303t-192 105q-59 0 -106.5 -27
t-81 -78.5t-52 -127.5t-18.5 -175v-69q0 -99 18.5 -175.5t53 -128.5t82 -79t106.5 -27q124 0 191 105.5t67 304.5v69z" />
    <glyph glyph-name="P.smcp" horiz-adv-x="986" 
d="M307 438v-438h-176v1165h403q91 0 162 -27.5t120 -76t74 -116t25 -147.5q0 -84 -25 -151t-74 -113.5t-120 -71t-162 -24.5h-227zM307 590h227q54 0 92.5 15.5t63.5 42.5t36.5 65t11.5 83q0 42 -11.5 81t-36.5 69t-63.5 48t-92.5 18h-227v-422z" />
    <glyph glyph-name="Q.smcp" horiz-adv-x="1063" 
d="M959 548q0 -166 -47.5 -287.5t-134.5 -191.5l189 -160l-118 -111l-226 197q-47 -11 -96 -11q-95 0 -175 39t-138 111.5t-90 177t-32 236.5v67q0 132 32 236.5t89.5 178t137 112.5t174.5 39q98 0 178.5 -39t137.5 -112.5t88 -178t31 -236.5v-67zM785 617q0 198 -68 303
t-193 105q-59 0 -106 -27t-81 -78.5t-52 -127.5t-18 -175v-69q0 -99 18.5 -175.5t52.5 -128.5t81.5 -79t106.5 -27q124 0 191.5 105.5t67.5 304.5v69z" />
    <glyph glyph-name="R.smcp" horiz-adv-x="954" 
d="M514 449h-206v-449h-177v1165h362q184 0 281 -92t97 -264q0 -115 -50 -194.5t-142 -121.5l237 -483v-10h-189zM308 600h184q50 0 88 15.5t63.5 42.5t38.5 64t13 80q0 46 -11.5 85t-35.5 66.5t-62.5 43t-92.5 15.5h-185v-412z" />
    <glyph glyph-name="S.smcp" horiz-adv-x="929" 
d="M677 298q0 37 -9 66t-32.5 53.5t-65 45.5t-105.5 41q-82 24 -148 55t-112.5 74t-72 99t-25.5 128q0 70 26.5 129t74.5 101.5t116 66.5t151 24q90 0 160.5 -28.5t119 -77t73.5 -113t25 -137.5h-176q0 45 -12 82.5t-37 64.5t-63.5 42.5t-91.5 15.5q-49 0 -84.5 -13
t-59 -35.5t-34.5 -53.5t-11 -67q0 -34 13 -61.5t41.5 -51t72.5 -44t107 -40.5q82 -25 145 -58t105.5 -77t64 -100.5t21.5 -128.5q0 -74 -26.5 -132.5t-75 -99t-118 -62.5t-154.5 -22q-76 0 -149 22.5t-130 68t-92 114t-35 160.5h177q0 -58 17.5 -99t48 -67t72.5 -38t91 -12
q99 0 148 45.5t49 119.5z" />
    <glyph glyph-name="T.smcp" horiz-adv-x="934" 
d="M880 1012h-326v-1012h-177v1012h-324v153h827v-153z" />
    <glyph glyph-name="U.smcp" horiz-adv-x="1001" 
d="M892 1165v-780q0 -100 -31.5 -175t-84.5 -125.5t-124.5 -75.5t-150.5 -25q-84 0 -155 25t-123.5 75.5t-82 125.5t-29.5 175v780h174v-780q0 -65 15.5 -112t43.5 -77.5t68 -45.5t89 -15q98 0 156 60.5t58 189.5v780h177z" />
    <glyph glyph-name="V.smcp" horiz-adv-x="998" 
d="M478 292l21 -85l21 83l254 875h189l-382 -1165h-164l-382 1165h190z" />
    <glyph glyph-name="W.smcp" horiz-adv-x="1342" 
d="M392 294l4 -42l5 26l201 887h156l197 -890l3 -17l4 38l158 869h175l-245 -1165h-165l-205 893l-212 -893h-164l-243 1165h173z" />
    <glyph glyph-name="X.smcp" horiz-adv-x="979" 
d="M488 730l223 435h209l-326 -578l338 -587h-210l-232 443l-230 -443h-209l334 587l-328 578h208z" />
    <glyph glyph-name="Y.smcp" horiz-adv-x="939" 
d="M468 616l243 549h198l-355 -755v-410h-177v422l-349 743h198z" />
    <glyph glyph-name="Z.smcp" horiz-adv-x="931" 
d="M285 151h571v-151h-778v124l552 888h-548v153h755v-121z" />
    <glyph glyph-name="zero.smcp" horiz-adv-x="917" 
d="M815 497q0 -131 -25.5 -227.5t-72 -160t-112 -94.5t-146.5 -31q-80 0 -146 31t-113 94.5t-73 160t-26 227.5v174q0 131 25.5 227t72.5 159t112.5 93.5t145.5 30.5q81 0 147 -30.5t113 -93.5t72.5 -159t25.5 -227v-174zM638 699q0 166 -46.5 247.5t-134.5 81.5
q-86 0 -133 -81.5t-47 -247.5v-229q0 -167 48 -251t134 -84q88 0 133.5 84t45.5 251v229z" />
    <glyph glyph-name="one.smcp" horiz-adv-x="917" 
d="M594 0h-178v943l-271 -99v159l424 165h25v-1168z" />
    <glyph glyph-name="two.smcp" horiz-adv-x="917" 
d="M842 0h-739v131l359 413q47 52 77.5 94t48.5 77.5t25 66t7 60.5q0 39 -11 73.5t-32 59.5t-51 39.5t-67 14.5q-53 0 -91 -16t-62 -44.5t-35.5 -69t-11.5 -89.5h-177q0 76 25 143.5t73 118t118 80t161 29.5q79 0 142 -24.5t106.5 -69t67 -106t23.5 -135.5q0 -55 -16.5 -106
t-45 -101.5t-67 -102t-83.5 -106.5l-267 -279h523v-151z" />
    <glyph glyph-name="three.smcp" horiz-adv-x="917" 
d="M312 667h106q49 0 85 13.5t59.5 38t35 58t11.5 73.5q0 83 -42 131t-127 48q-38 0 -69.5 -12t-54.5 -33.5t-35.5 -52.5t-12.5 -70h-176q0 69 25 128t71 101.5t109.5 66.5t141.5 24q77 0 141 -21.5t109.5 -63t71 -103.5t25.5 -143q0 -36 -9 -72t-28.5 -69.5t-49.5 -62
t-72 -48.5q51 -18 84.5 -46t54 -63.5t28.5 -77.5t8 -87q0 -81 -28 -144.5t-76.5 -107t-115 -66t-143.5 -22.5q-73 0 -138 20.5t-113.5 61.5t-76.5 102.5t-28 144.5h177q0 -39 12.5 -72t35.5 -56.5t56.5 -36.5t75.5 -13q85 0 135 49t50 140q0 102 -55.5 148.5t-151.5 46.5
h-106v148z" />
    <glyph glyph-name="four.smcp" horiz-adv-x="917" 
d="M719 413h139v-151h-139v-262h-177v262h-483l-3 115l479 788h184v-752zM242 413h300v489l-14 -28z" />
    <glyph glyph-name="five.smcp" horiz-adv-x="917" 
d="M154 579l57 586h576v-162h-427l-28 -289q28 16 70.5 32t99.5 16q78 0 140 -27t105.5 -77.5t66.5 -123t23 -162.5q0 -81 -22 -151.5t-66 -123t-111 -83t-158 -30.5q-69 0 -131 21t-110.5 62t-79.5 102.5t-37 142.5h169q11 -91 61 -134t128 -43q45 0 78.5 17.5t56 50t34 77
t11.5 98.5q0 51 -13.5 93.5t-39 73.5t-63 48.5t-84.5 17.5q-33 0 -57 -5.5t-42.5 -15t-34 -22t-31.5 -26.5z" />
    <glyph glyph-name="six.smcp" horiz-adv-x="916" 
d="M667 1171v-156h-12q-99 0 -167 -27t-110.5 -75t-63 -114t-24.5 -143q38 49 95.5 82t129.5 33q82 0 141.5 -32t97.5 -86t56.5 -124.5t18.5 -146.5q0 -84 -23 -156.5t-68 -126.5t-111 -84.5t-152 -30.5q-91 0 -159 36t-113 98t-67.5 144.5t-22.5 175.5v84q0 89 10 171.5
t34 155t64 131.5t99.5 101.5t141 66t188.5 23.5h17zM478 619q-32 0 -61 -10t-53.5 -28t-43.5 -43t-31 -54v-46q0 -74 15.5 -130.5t41.5 -94.5t59 -57.5t69 -19.5q43 0 76.5 18t56.5 50.5t35.5 76.5t12.5 96q0 50 -11 94t-33 77t-55.5 52t-77.5 19z" />
    <glyph glyph-name="seven.smcp" horiz-adv-x="917" 
d="M835 1060l-444 -1060h-186l443 1012h-573v153h760v-105z" />
    <glyph glyph-name="eight.smcp" horiz-adv-x="917" 
d="M790 858q0 -87 -41.5 -154t-113.5 -105q82 -38 130 -111.5t48 -171.5q0 -81 -27.5 -143t-75.5 -104t-112.5 -63.5t-139.5 -21.5t-140 21.5t-113 63.5t-75.5 104t-27.5 143q0 99 47.5 172t129.5 112q-72 38 -112.5 105t-40.5 153q0 78 24.5 138t68.5 101t104.5 62.5
t132.5 21.5t133 -21.5t106 -62.5t70 -101t25 -138zM637 326q0 44 -13 80t-36.5 62t-57 40t-74.5 14q-84 0 -130.5 -54t-46.5 -142q0 -91 47 -141t132 -50q83 0 131 50t48 141zM613 851q0 39 -11 71.5t-31.5 56.5t-49.5 37t-65 13q-71 0 -111.5 -48t-40.5 -130
q0 -81 41 -129.5t113 -48.5t113.5 48.5t41.5 129.5z" />
    <glyph glyph-name="nine.smcp" horiz-adv-x="917" 
d="M263 146q97 0 163.5 25.5t108.5 70.5t62.5 106.5t25.5 134.5q-35 -44 -88.5 -72.5t-126.5 -28.5q-83 0 -142.5 32t-98.5 85.5t-57.5 124.5t-18.5 149q0 84 23 158t67.5 129.5t110.5 88t152 32.5q94 0 161.5 -37t111 -101.5t64.5 -150.5t21 -185v-69q0 -86 -10 -167.5
t-33.5 -153t-63.5 -131t-100 -102.5t-142 -66.5t-190 -23.5h-13v152h13zM441 529q30 0 58 10.5t52 29t43 44t31 54.5v71q0 71 -15 125.5t-40.5 91t-58.5 55t-68 18.5q-42 0 -75 -20t-55.5 -54.5t-34.5 -80t-12 -96.5q0 -48 10.5 -93t32.5 -79.5t54.5 -55t77.5 -20.5z" />
    <glyph glyph-name="brevetildecomb" horiz-adv-x="824" 
d="M631 1454q0 -47 -17.5 -86t-50.5 -67.5t-80 -44t-105 -15.5t-105 15.5t-80 44t-51 67.5t-18 86h142q0 -23 6 -44.5t19.5 -38t34.5 -26t52 -9.5t52 9.5t34.5 26t19.5 38t6 44.5h141zM622 1720q0 -36 -10.5 -68.5t-29 -57t-44.5 -39t-57 -14.5q-34 0 -57 11.5t-42.5 26
t-39.5 26t-48 11.5q-27 0 -46 -25.5t-19 -63.5l-75 21q0 36 10 68.5t28.5 58t44.5 40.5t57 15q28 0 51 -11.5t44 -26t43 -26t49 -11.5t46.5 25.5t19.5 63.5z" />
    <glyph glyph-name="one.sup" horiz-adv-x="675" 
d="M446 0h-149v601l-176 -57v128l308 117h17v-789z" />
    <glyph glyph-name="two.sup" horiz-adv-x="675" 
d="M599 0h-512v108l241 271q55 62 76 105.5t21 76.5q0 49 -24 79.5t-69 30.5q-58 0 -84.5 -38t-26.5 -95h-149q0 54 17.5 101.5t50.5 83t80.5 56.5t107.5 21q58 0 104 -16.5t77.5 -47.5t48 -75t16.5 -98q0 -40 -11 -75.5t-32 -70t-51 -69.5t-68 -75l-136 -145h323v-128z" />
    <glyph glyph-name="three.sup" horiz-adv-x="675" 
d="M242 459h72q57 0 84 30.5t27 78.5q0 44 -24 73.5t-77 29.5q-42 0 -70 -24.5t-28 -67.5h-149q0 51 19 91.5t52 69.5t78 44.5t96 15.5q56 0 102.5 -14.5t79.5 -43t51.5 -70.5t18.5 -97t-29.5 -100.5t-85.5 -70.5q65 -21 95 -68t30 -116q0 -56 -20 -99t-55.5 -72
t-83.5 -44.5t-104 -15.5q-48 0 -93.5 13.5t-80.5 42t-56.5 72.5t-21.5 105h150q0 -45 28.5 -75t79.5 -30q54 0 81.5 30t27.5 81q0 63 -32.5 89t-89.5 26h-72v116z" />
    <glyph glyph-name="four.sup" horiz-adv-x="675" 
d="M525 299h84v-130h-84v-169h-148v169h-308l-5 102l310 518h151v-490zM210 299h167v279l-10 -18z" />
    <glyph glyph-name="five.sup" horiz-adv-x="675" 
d="M109 387l42 402h407v-132h-285l-16 -170q14 8 44 18.5t66 10.5q109 0 168.5 -68.5t59.5 -189.5q0 -54 -15.5 -103t-46.5 -85.5t-78 -58.5t-111 -22q-49 0 -93.5 15t-79.5 44t-56.5 71.5t-23.5 96.5h146q5 -52 33 -75.5t74 -23.5q27 0 46.5 11t32 30t18 45t5.5 57
q0 62 -29.5 100.5t-86.5 38.5q-21 0 -36.5 -4t-27.5 -10t-21 -13.5t-17 -15.5z" />
    <glyph glyph-name="six.sup" horiz-adv-x="675" 
d="M487 798v-131h-10q-111 0 -169.5 -53t-69.5 -163q26 31 63.5 51.5t86.5 20.5q54 0 93.5 -20.5t66 -56t39.5 -84t13 -103.5q0 -57 -17.5 -106.5t-50 -86t-78.5 -57t-104 -20.5q-61 0 -109.5 22t-82 62.5t-51.5 98.5t-18 130v55q0 104 24 186t71 138.5t118 86.5t165 30h20z
M347 396q-40 0 -69 -21.5t-42 -52.5v-36q0 -85 31 -127t79 -42q24 0 44 11t34 29.5t21.5 44.5t7.5 56q0 62 -27.5 100t-78.5 38z" />
    <glyph glyph-name="seven.sup" horiz-adv-x="675" 
d="M594 699l-287 -699h-157l288 659h-371v130h527v-90z" />
    <glyph glyph-name="eight.sup" horiz-adv-x="675" 
d="M571 579q0 -59 -26.5 -103t-74.5 -70q54 -27 85.5 -75.5t31.5 -114.5q0 -57 -19 -99.5t-52.5 -71t-79.5 -42.5t-99 -14q-54 0 -99.5 14t-79.5 42.5t-53 71t-19 99.5q0 66 31 114.5t85 75.5q-48 26 -74.5 70t-26.5 103q0 54 17.5 95t48.5 69t74.5 42.5t94.5 14.5
q52 0 95 -14.5t74 -42.5t48.5 -69t17.5 -95zM439 228q0 52 -28.5 81t-74.5 29q-47 0 -74 -29t-27 -81q0 -53 27 -82t75 -29q47 0 74.5 29t27.5 82zM423 570q0 46 -22.5 73.5t-64.5 27.5q-41 0 -63 -26.5t-22 -74.5q0 -46 22 -74t64 -28t64 28t22 74z" />
    <glyph glyph-name="nine.sup" horiz-adv-x="675" 
d="M207 120q108 0 161 47t63 145q-25 -26 -58.5 -41.5t-74.5 -15.5q-54 0 -94.5 19.5t-67.5 54t-41 83t-14 107.5q0 57 17 108.5t49 89.5t78 60.5t104 22.5q59 0 106 -22t79.5 -63.5t50 -101.5t17.5 -136v-51q0 -209 -91 -321t-283 -112h-11v127h10zM333 376q35 0 60.5 19.5
t39.5 47.5v64q0 83 -29.5 123t-74.5 40q-24 0 -42.5 -12t-31.5 -32.5t-19.5 -48t-6.5 -58.5q0 -30 6.5 -56t19.5 -45.5t32.5 -30.5t45.5 -11z" />
    <glyph glyph-name="crossbar" horiz-adv-x="828" 
d="M688 651h-542v151h542v-151z" />
    <glyph glyph-name="ringacute" horiz-adv-x="627" 
d="M377 1650h176l-191 -184h-103zM147 1251q0 36 12 67t32.5 53t48 34.5t57.5 12.5t56.5 -12.5t46 -34.5t31 -53t11.5 -67t-11.5 -66t-31 -51.5t-46 -33.5t-56.5 -12t-57.5 12t-48 33.5t-32.5 51.5t-12 66zM224 1251q0 -36 21.5 -60.5t51.5 -24.5q29 0 49 24.5t20 60.5
q0 38 -20 63t-49 25q-30 0 -51.5 -25t-21.5 -63z" />
    <glyph glyph-name="dasiaoxia" horiz-adv-x="755" 
d="M355 1154l65 323h187v-12l-171 -327h-81v16zM120 1221q0 86 40.5 157t115.5 116l69 -58q-33 -45 -49.5 -97t-16.5 -124v-79h-159v85z" />
    <glyph glyph-name="cyrillictic" horiz-adv-x="376" 
d="M271 -359h-177v512h177v-512z" />
    <glyph glyph-name="cyrillichookleft" horiz-adv-x="521" 
d="M229 66q49 -27 83 -59.5t56 -67.5t32 -71.5t10 -71.5q0 -51 -16 -90t-44 -65t-65 -39.5t-80 -13.5q-66 0 -108 14.5t-68 29.5l29 122q15 -8 41 -17.5t59 -9.5q55 0 77.5 25.5t22.5 64.5q0 27 -9.5 51.5t-24.5 47.5t-34.5 43.5t-40.5 40.5z" />
    <glyph glyph-name="cyrillichook" horiz-adv-x="480" 
d="M341 152v-241q0 -170 -73 -259t-204 -89q-26 0 -48 4t-45 14l12 157q6 -3 18 -5.5t24 -4t23 -2.5t16 -1q48 0 74 47t26 139v241h177z" />
    <glyph glyph-name="circumflexhookcomb" horiz-adv-x="914" 
d="M748 1252h-157l-164 186l-165 -186h-155l232 262h175zM665 1390l-1 131q52 5 76.5 17.5t24.5 45.5q0 37 -32 52t-80 15l5 92q111 0 167 -44t56 -117q0 -33 -9.5 -56.5t-24.5 -39t-34.5 -24.5t-39.5 -12l-1 -60h-107z" />
    <glyph glyph-name="g.alt" horiz-adv-x="950" 
d="M904 935h-131q24 -42 37 -90t13 -102v-22q0 -73 -26.5 -138t-74.5 -114t-115 -77.5t-149 -28.5q-67 0 -127 20q-16 -17 -28 -42.5t-12 -62.5q0 -23 8 -39t22 -25.5t33.5 -13.5t42.5 -4h143q168 0 260 -71t92 -222q0 -57 -30.5 -117.5t-89 -110t-143.5 -81.5t-194 -32
q-97 0 -171.5 22.5t-125 60.5t-76.5 88t-26 106q0 48 11.5 88t31.5 73t46.5 58.5t55.5 43.5q-23 22 -36 52t-13 69t9 71t23.5 57.5t33 45t37.5 35.5q-69 49 -107.5 124.5t-38.5 164.5v22q0 78 26.5 144t75 113.5t116 74.5t149.5 27q70 0 130 -20h317zM362 44q-35 0 -68 6
q-34 -23 -58 -68.5t-24 -105.5q0 -33 13.5 -62.5t41 -52t69.5 -35.5t99 -13q67 0 119.5 18t88 45.5t54 61t18.5 65.5q0 34 -8 60t-28 44t-54 27.5t-85 9.5h-178zM266 721q0 -39 13.5 -76t38.5 -66t60.5 -46.5t79.5 -17.5q43 0 77.5 17.5t59 46.5t38 66t13.5 76v22
q0 42 -13.5 79.5t-38.5 66t-60 45t-78 16.5t-78 -16.5t-60 -45t-38.5 -66t-13.5 -79.5v-22z" />
    <glyph glyph-name="one.lnum" horiz-adv-x="784" 
d="M569 0h-178v1233l-306 -137v168l456 199h28v-1463z" />
    <glyph glyph-name="circumflextildecomb" horiz-adv-x="929" 
d="M748 1252h-157l-164 158l-165 -158h-155l259 244h122zM646 1725q0 -30 -11 -58t-30 -50t-44.5 -35t-54.5 -13q-31 0 -52 11t-38.5 24.5t-36 24.5t-43.5 11q-12 0 -24.5 -6.5t-22.5 -17t-16.5 -24t-6.5 -27.5l-69 19q0 30 10.5 59t29.5 51.5t44.5 36.5t54.5 14
q25 0 45.5 -11t40 -24t40 -24t44.5 -11q12 0 24.5 6t22.5 16.5t16.5 23.5t6.5 27z" />
    <glyph glyph-name="chi.alt" horiz-adv-x="1007" 
d="M196 1097q63 0 105.5 -27.5t71 -68t46.5 -87t33 -85.5l84 -232l197 485h177l-289 -721l174 -478q11 -33 23.5 -60.5t26.5 -47.5t30 -31.5t35 -11.5h18t23 1t23 1.5t18 2.5l-49 -158q-8 -7 -23 -11t-25 -4q-52 0 -89 17.5t-66 51.5t-53 84.5t-48 117.5l-108 301l-220 -551
h-186l321 790l-136 381q-11 35 -25.5 68t-33 58.5t-41 41t-49.5 15.5q-11 0 -29 -2t-29 -3l1 148q15 5 42 10t50 5z" />
    <glyph glyph-name="alpha.alt" horiz-adv-x="1072" 
d="M770 216q-44 -113 -120.5 -175t-193.5 -62q-85 0 -151.5 38.5t-112 107.5t-69 165t-23.5 210v21q0 128 23.5 234.5t69 183.5t112 120t152.5 43q115 0 190.5 -60t120.5 -170l25 210h167l-92 -542l97 -540h-166zM277 500q0 -77 12 -144.5t39 -117.5t70 -79t104 -29
q52 0 89 32.5t63 87t43.5 125t29.5 146.5v36q-9 74 -26 144.5t-44 126t-65 89t-89 33.5q-62 0 -105 -34.5t-70 -93t-39 -136.5t-12 -165v-21z" />
    <glyph glyph-name="delta.alt" horiz-adv-x="1021" 
d="M816 1456v-148h-364q9 -17 27 -40.5t39.5 -50t44 -53t40.5 -50.5q68 -69 125.5 -137t99.5 -139t66 -147t24 -160v-22q0 -114 -27.5 -211t-79.5 -168t-128 -111t-173 -40t-172.5 40t-128 111t-80 168t-27.5 211v22q0 92 25 174t73.5 145.5t119 105t160.5 53.5q8 1 11 1
t8 -2q-73 85 -147 168.5t-136 164.5v115h600zM279 509q0 -77 13.5 -145.5t41.5 -120.5t71.5 -82.5t104.5 -30.5t104.5 30.5t71.5 82.5t41.5 120.5t13.5 145.5v22q0 61 -12 114.5t-32.5 97.5t-47.5 78.5t-57 57.5q-16 6 -31 8.5t-37 2.5q-65 0 -111.5 -29t-76 -78.5
t-43.5 -114.5t-14 -137v-22z" />
    <glyph glyph-name="R.alt" horiz-adv-x="1182" 
d="M350 628v-628h-184v1455h452q203 0 308.5 -105t105.5 -309q0 -115 -52 -197.5t-149 -130.5q54 -20 90.5 -53.5t59 -78t32.5 -98t10 -114.5v-134q0 -61 11.5 -117.5t44.5 -93.5v-24h-190q-19 20 -29.5 52.5t-15 67t-5 66t-0.5 51.5v130q0 59 -14 107t-40.5 82.5t-64 53
t-83.5 18.5h-287zM350 785h249q135 0 192.5 66t57.5 190q0 58 -13 105.5t-41 81t-72 51.5t-107 18h-266v-512z" />
    <glyph glyph-name="K.alt" horiz-adv-x="1148" 
d="M487 654h-138v-654h-183v1456h183v-642h112l410 642h228l-462 -704l496 -752h-224z" />
    <glyph glyph-name="k.alt" horiz-adv-x="928" 
d="M422 501h-106v-501h-178v1536h178v-882h106l236 428h207l-304 -493l351 -589h-208z" />
    <glyph glyph-name="K.alt2" horiz-adv-x="1173" 
d="M349 680v-680h-183v1456h183v-647h10l491 647h228l-544 -715l576 -741h-224z" />
    <glyph glyph-name="k.alt2" horiz-adv-x="931" 
d="M317 499h-1v-499h-178v1560h178v-904l307 426h229l-389 -497l426 -585h-216z" />
    <glyph glyph-name="breveacutecomb" horiz-adv-x="828" 
d="M642 1456q0 -46 -18 -84.5t-51.5 -66t-81 -43t-107.5 -15.5t-107.5 15.5t-81.5 43t-52 66t-18 84.5h144q0 -23 6 -44t20 -37t35.5 -25.5t53.5 -9.5q31 0 53 9.5t35.5 25.5t19.5 37t6 44h144zM422 1674h143l-136 -198h-93z" />
    <glyph glyph-name="brevehookcomb" horiz-adv-x="828" 
d="M623 1456q0 -46 -17 -84t-49.5 -65.5t-78.5 -43t-103 -15.5q-58 0 -104 15.5t-78.5 43t-50 65.5t-17.5 84h138q0 -23 6 -44t19.5 -37t35 -25t51.5 -9t51 9.5t34 25t19 36.5t6 44h138zM322 1473l-1 124q59 4 85 16t26 41q0 33 -35 46t-89 13l6 82q125 0 186.5 -39
t61.5 -105q0 -29 -10.5 -49.5t-27 -34t-37.5 -21.5t-43 -11l-1 -62h-121z" />
    <glyph glyph-name="seven.alt" horiz-adv-x="1011" 
d="M917 1304q-84 -113 -144 -214.5t-102 -196t-69 -184.5t-44 -180t-27.5 -182.5t-19.5 -191.5l-14 -155h-178l14 155q19 180 54.5 335.5t87 295.5t119 267.5t150.5 250.5h-659v152h832v-152z" />
    <glyph glyph-name="G.alt" horiz-adv-x="1221" 
d="M1069 529q0 -122 -31.5 -223t-88.5 -174t-137 -113t-178 -40q-110 0 -203 44.5t-161.5 128.5t-107 206t-38.5 277v186q0 154 35 275.5t98.5 206t152 129t194.5 44.5q110 0 191.5 -33.5t137.5 -93t88.5 -141.5t45.5 -179h-182q-9 59 -28 111.5t-51.5 92t-81.5 62.5
t-119 23q-67 0 -122 -34.5t-94 -98.5t-60.5 -156t-21.5 -206v-188q0 -117 24.5 -210t68 -157t103 -98t130.5 -34q130 0 190.5 99t60.5 292v47h-253v156h438v-201z" />
    <glyph glyph-name="C.ss06" horiz-adv-x="1235" 
d="M1130 462q-9 -104 -42.5 -192t-92.5 -153t-143 -101.5t-194 -36.5q-112 0 -209.5 51.5t-169.5 145.5t-113 226.5t-41 294.5v60q0 162 38.5 294.5t108 227t166 146.5t211.5 52q106 0 191.5 -36t147 -100.5t98 -154.5t45.5 -198h-184q-9 76 -31 137t-59 104t-88.5 66.5
t-119.5 23.5q-79 0 -142 -41t-107 -115t-67.5 -177t-23.5 -227v-62q0 -125 26.5 -228t73 -177t110.5 -115t139 -41q72 0 122.5 22t84 64t53 102.5t29.5 137.5h183z" />
    <glyph glyph-name="G.ss06" horiz-adv-x="1266" 
d="M1130 190q-17 -29 -51.5 -66t-89.5 -69t-132 -54t-178 -22q-116 0 -217 50.5t-176 145.5t-118 231t-43 308v27q0 172 39.5 308t110 231t167 145.5t210.5 50.5q113 0 197 -33.5t142.5 -93t92.5 -141.5t47 -179h-184q-10 59 -29.5 111.5t-54 92t-86 62.5t-125.5 23
q-75 0 -138 -41t-108.5 -116t-71 -181t-25.5 -237v-29q0 -135 28.5 -242t78.5 -182t117.5 -114.5t145.5 -39.5q59 0 104.5 10.5t78 26.5t54 34.5t32.5 34.5v326h-265v155h447v-533z" />
    <glyph glyph-name="D.ss06" horiz-adv-x="1247" 
d="M166 0v1456h372q123 0 229 -49.5t184 -141.5t122.5 -223t44.5 -294v-42q0 -163 -44 -293.5t-123.5 -222t-189 -141t-240.5 -49.5h-355zM349 1298v-1141h171q98 0 175 39.5t129.5 111.5t80 173.5t27.5 224.5v44q0 130 -28 231.5t-79.5 172t-124.5 107.5t-163 37h-188z" />
    <glyph glyph-name="O.ss06" horiz-adv-x="1317" 
d="M1189 706q0 -160 -40.5 -293.5t-111.5 -230t-168 -150t-211 -53.5q-110 0 -207 53.5t-169.5 150t-114.5 230t-42 293.5v43q0 160 42 293.5t114 230t169 150.5t207 54q113 0 210.5 -54t169 -150.5t112 -230t40.5 -293.5v-43zM1007 751q0 126 -26.5 229t-73.5 177
t-111 114.5t-139 40.5q-71 0 -134.5 -40.5t-111.5 -114.5t-76 -177t-28 -229v-45q0 -127 28.5 -231t76.5 -178t111.5 -114.5t134.5 -40.5q76 0 140 40.5t110.5 114.5t72.5 178t26 231v45z" />
    <glyph glyph-name="Q.ss06" horiz-adv-x="1320" 
d="M1189 706q0 -111 -19.5 -209t-55.5 -180.5t-86.5 -147.5t-113.5 -109l211 -191l-125 -121l-259 239q-43 -8 -83 -8q-110 0 -207 53.5t-169.5 149.5t-114.5 229.5t-42 294.5v41q0 160 42 294.5t114 231t169 150.5t207 54q113 0 210.5 -54t169 -150.5t112 -231t40.5 -294.5
v-41zM1007 749q0 126 -26.5 230t-73.5 178t-111 114.5t-139 40.5q-71 0 -134.5 -40.5t-111.5 -114.5t-76 -178t-28 -230v-43q0 -127 28.5 -231t76.5 -178t111.5 -114.5t134.5 -40.5q76 0 140 40.5t110.5 114.5t72.5 178t26 231v43z" />
    <glyph glyph-name="one.onum" horiz-adv-x="864" 
d="M640 0h-176v934l-310 -139v168l460 202h26v-1165z" />
    <glyph glyph-name="two.onum" horiz-adv-x="1009" 
d="M907 0h-748v131l397 440q47 49 73 86.5t39 68.5t15.5 58t2.5 56q0 37 -11 71.5t-33 61.5t-54.5 43t-74.5 16q-46 0 -84 -18t-65.5 -51.5t-42.5 -81.5t-15 -108h-176q0 84 28.5 159t79.5 131t121 88.5t154 32.5t149.5 -26t110 -71.5t67.5 -107t23 -131.5
q0 -97 -45.5 -186.5t-128.5 -177.5l-289 -333h507v-151z" />
    <glyph glyph-name="three.onum" horiz-adv-x="972" 
d="M620 1012h-526v153h746v-118l-311 -404q64 -11 122.5 -47t103 -93.5t71 -135t26.5 -173.5q0 -131 -35.5 -232t-98.5 -170t-150 -105t-189 -36q-91 0 -174 25.5t-172 77.5l49 139q63 -41 134 -64.5t146 -23.5q72 0 130 27.5t98.5 76t62 116t21.5 147.5q0 169 -71.5 252.5
t-229.5 83.5h-48v103z" />
    <glyph glyph-name="four.onum" horiz-adv-x="1075" 
d="M849 150h166v-151h-166v-329h-177v329h-600v109l590 1057h187v-1015zM276 150h396v749l-18 -38z" />
    <glyph glyph-name="five.onum" horiz-adv-x="990" 
d="M130 372l88 792h668v-171h-529l-42 -396q33 26 80.5 45.5t118.5 20.5q86 1 155 -34t117.5 -99t74.5 -155t26 -202q0 -110 -28 -205.5t-84 -166.5t-139.5 -112t-195.5 -41q-89 0 -173.5 27t-161.5 87l54 139q55 -52 126.5 -76.5t154.5 -24.5q63 0 113 28t85 78t54 117.5
t19 147.5q0 69 -16.5 128t-48 103t-76 69t-99.5 25q-50 0 -83.5 -10t-55.5 -28.5t-35 -44.5t-22 -58z" />
    <glyph glyph-name="seven.onum" horiz-adv-x="939" 
d="M868 1059l-508 -1389h-176l499 1343h-601v152h786v-106z" />
    <glyph glyph-name="nine.onum" horiz-adv-x="1065" 
d="M425 -191q67 0 125 28t102.5 84t73.5 139t40 194q-48 -45 -107.5 -67t-127.5 -22q-93 0 -166.5 37t-124.5 104t-78 159t-27 202q0 125 31 221.5t84 162.5t123.5 100t150.5 34q93 0 171 -34.5t134 -104.5t87.5 -176.5t31.5 -249.5v-243q0 -176 -38.5 -310.5t-106.5 -225.5
t-160 -137.5t-200 -46.5q-55 0 -117.5 14t-115.5 46l35 142q39 -20 84 -35t96 -15zM540 317q47 0 85 13.5t66.5 37t48.5 53.5t32 63v155q0 197 -63.5 295.5t-179.5 98.5q-45 0 -84.5 -23t-69.5 -68.5t-47 -114.5t-17 -160q0 -69 16 -132.5t45.5 -111.5t72 -77t95.5 -29z" />
    <glyph glyph-name="zero.onum" horiz-adv-x="1118" 
d="M999 572q0 -146 -32 -257t-90 -185.5t-138.5 -112.5t-177.5 -38q-96 0 -177.5 38t-140 112.5t-91.5 185.5t-33 257v19q0 146 32.5 257t91 186t139.5 113t177 38q97 0 177.5 -38t139 -113t91 -186t32.5 -257v-19zM822 605q0 211 -70.5 319.5t-192.5 108.5
q-60 0 -108.5 -27.5t-83 -81.5t-53 -134t-18.5 -185v-45q0 -105 19 -185.5t53.5 -134.5t83.5 -82t109 -28q122 0 191.5 109.5t69.5 320.5v45z" />
    <glyph glyph-name="seven.lnum" horiz-adv-x="939" 
d="M850 1352l-478 -1352h-177l477 1304h-602v152h780v-104z" />
    <glyph glyph-name="b.ss06" horiz-adv-x="1010" 
d="M933 530q0 -119 -26.5 -219.5t-75 -174t-117 -115t-153.5 -41.5q-88 0 -153 34t-110 99l-12 -113h-153v1536h176v-554q45 58 106.5 89t143.5 31q86 0 155.5 -39.5t118 -112t74.5 -174t26 -225.5v-21zM757 551q0 83 -15 155t-45.5 125t-76.5 83.5t-107 30.5q-38 0 -69 -12
t-56.5 -34t-45 -51.5t-33.5 -63.5v-489q14 -34 33.5 -63t45 -50.5t57 -33.5t70.5 -12q60 0 105.5 31t76 85t45.5 125.5t15 152.5v21z" />
    <glyph glyph-name="c.ss06" horiz-adv-x="944" 
d="M506 131q39 0 74 16t62 44t44 66.5t20 83.5h167q-3 -72 -33.5 -137.5t-80 -115t-115 -79t-138.5 -29.5q-105 0 -182.5 43.5t-128 117.5t-75 172t-24.5 207v42q0 109 24.5 207t75.5 172t128 117.5t182 43.5q82 0 149 -30t114 -82.5t74 -124.5t30 -155h-167q-3 50 -18 93.5
t-40.5 76t-61 51.5t-80.5 19q-69 0 -114.5 -34t-71.5 -89.5t-36.5 -125t-10.5 -139.5v-42q0 -72 10 -141.5t36.5 -124.5t71.5 -89t115 -34z" />
    <glyph glyph-name="d.ss06" horiz-adv-x="1032" 
d="M95 550q0 124 28.5 225.5t79.5 174t120.5 112.5t150.5 40q78 0 137.5 -28.5t104.5 -82.5v545h176v-1536h-153l-12 104q-45 -60 -107.5 -92t-147.5 -32q-80 0 -149 41t-119.5 114.5t-79.5 174t-29 219.5v21zM271 529q0 -81 16 -152.5t47 -125t77 -84.5t107 -31
q75 0 122 40.5t76 104.5v522q-30 62 -78 102t-118 40q-62 0 -108.5 -30.5t-77.5 -84t-47 -125.5t-16 -155v-21z" />
    <glyph glyph-name="g.ss06" horiz-adv-x="1024" 
d="M95 550q0 124 28 225.5t78 174t119.5 112.5t152.5 40q85 0 148.5 -34t108.5 -97l13 111h149v-1004q0 -121 -26.5 -214.5t-78 -158t-127 -98t-172.5 -33.5q-34 0 -73.5 6.5t-80.5 19t-80.5 32.5t-73.5 47l52 138q25 -21 56 -38t64 -29t67.5 -18.5t66.5 -6.5
q121 0 175.5 87.5t54.5 256.5v22q-45 -54 -105.5 -82.5t-139.5 -28.5q-82 0 -151 41t-119 114.5t-78 174t-28 219.5v21zM271 529q0 -81 15.5 -152.5t46.5 -125t77 -84.5t107 -31q75 0 122.5 41t76.5 106v516q-30 64 -78 105t-119 41q-62 0 -108 -30.5t-77.5 -84t-47 -125.5
t-15.5 -155v-21z" />
    <glyph glyph-name="o.ss06" horiz-adv-x="1042" 
d="M96 551q0 118 30 218.5t85 174.5t133.5 116t174.5 42q98 0 177 -42t134.5 -116t85.5 -174.5t30 -218.5v-22q0 -118 -30 -218.5t-85.5 -174t-134 -115t-175.5 -41.5t-175.5 41.5t-134 115t-85.5 174t-30 218.5v22zM272 529q0 -81 16 -153t47 -126.5t77.5 -86.5t108.5 -32
q61 0 107.5 32t78 86.5t47.5 126.5t16 153v22q0 80 -16 152.5t-48 127t-79 87t-108 32.5t-107 -32.5t-77 -87t-47 -127t-16 -152.5v-22z" />
    <glyph glyph-name="p.ss06" horiz-adv-x="1026" 
d="M931 529q0 -119 -26 -219.5t-74.5 -174t-117 -114.5t-153.5 -41q-81 0 -143 27.5t-108 80.5v-504h-176v1498h152l12 -108q47 62 111 95t149 33q87 0 156 -40t117.5 -112.5t74.5 -174t26 -225.5v-21zM755 550q0 83 -16.5 155t-48.5 125.5t-79.5 84t-108.5 30.5
q-69 0 -116.5 -39t-76.5 -99v-542q29 -60 75.5 -97t119.5 -37q61 0 107.5 32t78.5 86t48.5 126.5t16.5 153.5v21z" />
    <glyph glyph-name="q.ss06" horiz-adv-x="1041" 
d="M95 549q0 124 27.5 225.5t77.5 174.5t121 113t157 40q81 0 142.5 -30t107.5 -87l11 97h152v-1498h-176v498q-45 -50 -104.5 -76t-134.5 -26q-85 0 -155 41t-120.5 114.5t-78 173.5t-27.5 219v21zM271 528q0 -81 16.5 -153t48.5 -126t78.5 -86t107.5 -32q69 0 115.5 36.5
t77.5 94.5v557q-31 57 -78 94t-113 37q-62 0 -109 -31.5t-79 -86t-48.5 -127.5t-16.5 -156v-21z" />
    <glyph glyph-name="c.ss07" horiz-adv-x="946" 
d="M508 131q39 0 73 16.5t59.5 44.5t40.5 65.5t18 79.5l160 -38q-6 -63 -34 -121t-74 -102t-108 -70t-135 -26q-105 0 -182.5 43.5t-128.5 117.5t-76 172t-25 207v42q0 109 25 207t76 172t128 117.5t182 43.5q83 0 146 -28.5t107 -76.5t68.5 -111.5t30.5 -132.5l-160 -38
q-6 49 -20 91.5t-37 74.5t-56 50.5t-79 18.5q-70 0 -115 -34t-71.5 -89.5t-37 -125t-10.5 -139.5v-42q0 -72 10 -141.5t36.5 -124.5t72 -89t116.5 -34z" />
    <glyph glyph-name="e.ss07" horiz-adv-x="960" 
d="M555 -20q-105 0 -189.5 40t-144 112t-91 171t-31.5 217v44q0 127 34 227t89.5 169t127.5 105.5t149 36.5q102 0 174 -37t118 -103t67 -156t21 -196v-122h-603q3 -75 23.5 -140t57 -113.5t88.5 -76t119 -27.5q77 0 135 27t94 63l52 -127q-18 -20 -44.5 -40t-62.5 -36.5
t-81.5 -27t-101.5 -10.5zM499 950q-44 0 -81.5 -20.5t-66.5 -60t-48 -97t-25 -132.5h424v25q0 55 -10 106t-33.5 91t-62.5 64t-97 24z" />
    <glyph glyph-name="g.ss07" horiz-adv-x="1009" 
d="M97 549q0 124 25 225.5t72 174.5t114 113t150 40q85 0 148.5 -33.5t108.5 -96.5l13 110h150v-1022q0 -116 -26.5 -206.5t-78.5 -152.5t-127.5 -94.5t-172.5 -32.5q-30 0 -65 5t-71 15.5t-71 27t-64 38.5l52 138q44 -33 103 -53t115 -20q121 0 175 83t54 242v40
q-45 -54 -105 -82t-139 -28q-82 0 -148.5 41t-113.5 114.5t-72.5 173.5t-25.5 219v21zM274 528q0 -81 13 -152t40.5 -124.5t71 -84.5t104.5 -31q75 0 122 40.5t76 105.5v519q-15 31 -34.5 57.5t-43.5 45.5t-53.5 30t-64.5 11q-62 0 -105.5 -30.5t-71.5 -84t-41 -126
t-13 -155.5v-21z" />
    <glyph glyph-name="six.alt" horiz-adv-x="1011" 
d="M626 1476q50 0 96 -10t76 -27l-32 -140q-18 8 -48.5 16.5t-74.5 8.5q-68 0 -124.5 -28t-99 -83.5t-70.5 -137.5t-38 -190q42 40 99.5 63t133.5 23q84 0 151.5 -37t115.5 -101.5t73.5 -152.5t25.5 -189q0 -111 -26 -204.5t-76 -162t-122 -106.5t-165 -38q-78 0 -149 33
t-125 101.5t-86 172t-32 244.5v212q0 178 39 315t106 230t157.5 140.5t194.5 47.5zM514 822q-74 0 -125.5 -33.5t-82.5 -88.5v-169q0 -105 18 -181t48 -124.5t68.5 -72t80.5 -23.5q56 0 96.5 29.5t66.5 79t38 115t12 137.5q0 70 -14 130.5t-42 105t-69 70t-95 25.5z" />
    <glyph glyph-name="nine.alt" horiz-adv-x="1011" 
d="M402 130q62 0 114.5 25t91.5 76.5t62 129.5t26 184q-45 -44 -101.5 -66t-120.5 -22q-89 0 -159.5 37t-119 104t-74.5 159t-26 202q0 125 29.5 221.5t80 162.5t118 100t143.5 34q90 0 165 -34.5t128.5 -104.5t83.5 -176.5t30 -249.5v-335q0 -149 -34.5 -261t-95 -186.5
t-143.5 -112t-180 -37.5q-51 0 -109 13t-107 45l35 142q35 -20 76.5 -35t86.5 -15zM483 609q43 0 77.5 13.5t61 36t45.5 52t30 62.5v158q0 197 -59 295.5t-167 98.5q-41 0 -77.5 -23t-63.5 -68.5t-43 -114.5t-16 -160q0 -69 14.5 -132.5t42 -111.5t66.5 -77t89 -29z" />
    <glyph glyph-name="D.cn" horiz-adv-x="1169" 
d="M157 0v1456h347q123 0 223.5 -48t172 -137t110.5 -216t39 -285v-86q0 -158 -39 -285t-112 -215.5t-177 -136t-234 -47.5h-330zM340 1298v-1141h147q97 0 168.5 37.5t119 106.5t70.5 166t23 217v89q0 125 -23.5 222.5t-69.5 165t-114 102.5t-157 35h-164z" />
    <glyph glyph-name="Q.cn" horiz-adv-x="1230" 
d="M1104 681q0 -211 -56.5 -363t-159.5 -239l227 -204l-124 -121l-264 242q-29 -8 -58.5 -12t-61.5 -4q-110 0 -201.5 48t-157.5 139t-103 220.5t-37 293.5v92q0 163 36.5 293.5t102.5 221.5t157 139.5t201 48.5q113 0 205 -48.5t157.5 -139.5t101 -221.5t35.5 -293.5v-92z
M921 775q0 130 -21.5 230t-62 168t-99 103t-133.5 35q-70 0 -128 -35t-99 -103t-64 -168t-23 -230v-94q0 -131 23 -231t65 -168.5t100 -103.5t128 -35q150 0 232 138.5t82 399.5v94z" />
    <glyph glyph-name="a.cn" horiz-adv-x="981" 
d="M689 0q-8 17 -13 44t-9 56q-42 -51 -103 -85.5t-138 -34.5q-71 0 -128.5 25t-98.5 68t-63 101.5t-22 125.5q0 87 28.5 153.5t81.5 111.5t128 68t168 23h143v85q0 97 -44 154.5t-132 57.5q-41 0 -73.5 -14t-56 -37.5t-36 -54.5t-12.5 -65h-177q0 58 25.5 115t73 102.5
t115.5 74t152 28.5q75 0 137.5 -22.5t108 -68t70.5 -113.5t25 -159v-503q0 -27 2 -57t6.5 -59t11 -55.5t14.5 -48.5v-16h-184zM453 141q37 0 70 12.5t60 33t47.5 47.5t32.5 56v235h-113q-126 0 -192.5 -49.5t-66.5 -149.5q0 -39 10 -73t30 -58.5t50.5 -39t71.5 -14.5z" />
    <glyph glyph-name="cyrillicbreve" horiz-adv-x="874" 
d="M728 1495q0 -59 -20.5 -108t-59.5 -84.5t-94.5 -55.5t-124.5 -20t-124.5 20t-94.5 55.5t-60 84.5t-21 108h151q0 -30 8 -57t25.5 -47.5t46 -32.5t69.5 -12q40 0 68.5 12t46.5 32.5t26 47.5t8 57h150z" />
    <glyph glyph-name="nonbreakingspace" unicode="&#xa0;" horiz-adv-x="469" 
 />
    <glyph glyph-name="uni00AD" unicode="&#xad;" horiz-adv-x="508" 
d="M460 543h-413v151h413v-151z" />
    <glyph glyph-name="Dcroat" unicode="&#x110;" horiz-adv-x="1199" 
d="M187 0v666h-139v151h139v639h347q123 0 222 -38.5t169 -115t108 -190t38 -262.5v-246q0 -149 -38 -262t-109 -189t-174 -114.5t-233 -38.5h-330zM590 666h-220v-509h147q195 0 284 113t89 334v249q0 230 -88.5 337.5t-267.5 107.5h-164v-481h220v-151z" />
    <glyph glyph-name="Eth" unicode="&#xd0;" horiz-adv-x="1199" 
d="M187 0v666h-139v151h139v639h347q123 0 222 -38.5t169 -115t108 -190t38 -262.5v-246q0 -149 -38 -262t-109 -189t-174 -114.5t-233 -38.5h-330zM590 666h-220v-509h147q195 0 284 113t89 334v249q0 230 -88.5 337.5t-267.5 107.5h-164v-481h220v-151z" />
    <glyph glyph-name="hbar" unicode="&#x127;" horiz-adv-x="1019" 
d="M557 1234h-218v-263q48 62 113.5 96.5t144.5 34.5q66 0 120 -21.5t92 -69t58.5 -122t20.5 -180.5v-709h-176v711q0 127 -42.5 180.5t-127.5 53.5q-66 0 -118.5 -44t-84.5 -115v-786h-177v1234h-147v151h147v151h177v-151h218v-151z" />
    <glyph glyph-name="Tbar" unicode="&#x166;" horiz-adv-x="1066" 
d="M816 823h-191v-823h-183v823h-168v151h168v324h-382v158h948v-158h-383v-324h191v-151z" />
    <glyph glyph-name="tbar" unicode="&#x167;" horiz-adv-x="605" 
d="M364 1344v-262h163v-143h-163v-186h180v-151h-180v-334q0 -42 8 -67.5t21 -39.5t29.5 -18.5t34.5 -4.5t40 4.5t31 7.5l-2 -150q-18 -6 -47.5 -13t-75.5 -7q-43 0 -82 14.5t-68.5 48.5t-47 89.5t-17.5 136.5v333h-186v151h186v186h-165v143h165v262h176z" />
    <glyph glyph-name="Agrave" unicode="&#xc0;" horiz-adv-x="1180" 
d="M836 380h-492l-113 -380h-188l469 1456h157l470 -1456h-188zM392 538h397l-199 662zM700 1550h-159l-258 294h223z" />
    <glyph glyph-name="Aacute" unicode="&#xc1;" horiz-adv-x="1180" 
d="M836 380h-492l-113 -380h-188l469 1456h157l470 -1456h-188zM392 538h397l-199 662zM685 1844h224l-268 -294h-149z" />
    <glyph glyph-name="Acircumflex" unicode="&#xc2;" horiz-adv-x="1180" 
d="M836 380h-492l-113 -380h-188l469 1456h157l470 -1456h-188zM392 538h397l-199 662zM856 1572v-10h-142l-120 170l-120 -170h-142v12l209 272h105z" />
    <glyph glyph-name="Atilde" unicode="&#xc3;" horiz-adv-x="1180" 
d="M836 380h-492l-113 -380h-188l469 1456h157l470 -1456h-188zM392 538h397l-199 662zM896 1814q0 -55 -14.5 -100t-39.5 -76.5t-59 -48.5t-73 -17q-42 0 -69.5 15t-50 32.5t-46 32.5t-58.5 15q-34 0 -56.5 -32t-22.5 -80l-115 7q0 55 14 100.5t39 78t59 50.5t73 18
q34 0 61 -15t52 -33t51.5 -33t59.5 -15q34 0 57 32.5t23 80.5z" />
    <glyph glyph-name="Adieresis" unicode="&#xc4;" horiz-adv-x="1180" 
d="M836 380h-492l-113 -380h-188l469 1456h157l470 -1456h-188zM392 538h397l-199 662zM273 1681q0 45 27.5 75.5t81.5 30.5t82 -30.5t28 -75.5t-28 -75t-82 -30t-81.5 30t-27.5 75zM703 1679q0 45 27.5 76t81.5 31t82 -31t28 -76t-28 -75t-82 -30t-81.5 30t-27.5 75z" />
    <glyph glyph-name="Aring" unicode="&#xc5;" horiz-adv-x="1180" 
d="M836 380h-492l-113 -380h-188l469 1456h157l470 -1456h-188zM392 538h397l-199 662zM379 1729q0 43 16.5 81t45.5 66.5t68 44.5t85 16q45 0 84.5 -16t68.5 -44.5t45.5 -66.5t16.5 -81q0 -44 -16.5 -81t-45.5 -64.5t-68.5 -43t-84.5 -15.5q-46 0 -85 15.5t-68 43
t-45.5 64.5t-16.5 81zM478 1729q0 -22 8.5 -43t24 -37t36.5 -25.5t47 -9.5q25 0 46.5 9.5t37 25t24 36.5t8.5 44q0 24 -8.5 45t-24 37.5t-37 26t-46.5 9.5q-26 0 -47 -9.5t-36.5 -26t-24 -37.5t-8.5 -45z" />
    <glyph glyph-name="Aringacute" unicode="&#x1fa;" horiz-adv-x="1180" 
d="M836 380h-492l-113 -380h-188l469 1456h157l470 -1456h-188zM392 538h397l-199 662zM678 1940h176l-191 -184h-103zM448 1541q0 36 12 67t32.5 53t48 34.5t57.5 12.5t56.5 -12.5t46 -34.5t31 -53t11.5 -67t-11.5 -66t-31 -51.5t-46 -33.5t-56.5 -12t-57.5 12t-48 33.5
t-32.5 51.5t-12 66zM525 1541q0 -36 21.5 -60.5t51.5 -24.5q29 0 49 24.5t20 60.5q0 38 -20 63t-49 25q-30 0 -51.5 -25t-21.5 -63z" />
    <glyph glyph-name="Ccedilla" unicode="&#xc7;" horiz-adv-x="1161" 
d="M1070 462q-6 -113 -37.5 -202t-89.5 -151.5t-143.5 -95.5t-198.5 -33q-110 0 -198 43t-150 123t-95.5 193t-33.5 254v269q0 140 33.5 253.5t97 193.5t155.5 123.5t208 43.5q106 0 187.5 -32t138.5 -94t89 -153t37 -209h-185q-6 86 -23 148t-49 102.5t-80 60t-115 19.5
q-80 0 -138 -32.5t-96 -91.5t-56.5 -143t-18.5 -187v-271q0 -96 15.5 -179t50 -145t90.5 -97.5t136 -35.5q75 0 126.5 18.5t84 58t49.5 101t24 148.5h185zM659 -9l-10 -52q23 -5 45 -16.5t39.5 -32t28.5 -51t11 -73.5q0 -47 -16.5 -85.5t-48.5 -66.5t-80 -43t-112 -15
l-6 107q56 0 92 23t36 76q0 25 -7.5 41.5t-23.5 27t-41 16.5t-60 10l28 134h125z" />
    <glyph glyph-name="Egrave" unicode="&#xc8;" horiz-adv-x="1017" 
d="M855 673h-515v-516h600v-157h-783v1456h773v-158h-590v-468h515v-157zM646 1562h-159l-258 294h223z" />
    <glyph glyph-name="Eacute" unicode="&#xc9;" horiz-adv-x="1017" 
d="M855 673h-515v-516h600v-157h-783v1456h773v-158h-590v-468h515v-157zM631 1856h224l-268 -294h-149z" />
    <glyph glyph-name="Ecircumflex" unicode="&#xca;" horiz-adv-x="1017" 
d="M855 673h-515v-516h600v-157h-783v1456h773v-158h-590v-468h515v-157zM802 1584v-10h-142l-120 170l-120 -170h-142v12l209 272h105z" />
    <glyph glyph-name="Edieresis" unicode="&#xcb;" horiz-adv-x="1017" 
d="M855 673h-515v-516h600v-157h-783v1456h773v-158h-590v-468h515v-157zM219 1693q0 45 27.5 75.5t81.5 30.5t82 -30.5t28 -75.5t-28 -75t-82 -30t-81.5 30t-27.5 75zM649 1691q0 45 27.5 76t81.5 31t82 -31t28 -76t-28 -75t-82 -30t-81.5 30t-27.5 75z" />
    <glyph glyph-name="Igrave" unicode="&#xcc;" horiz-adv-x="512" 
d="M348 0h-183v1456h183v-1456zM362 1562h-159l-258 294h223z" />
    <glyph glyph-name="Iacute" unicode="&#xcd;" horiz-adv-x="512" 
d="M348 0h-183v1456h183v-1456zM346 1856h224l-268 -294h-149z" />
    <glyph glyph-name="Icircumflex" unicode="&#xce;" horiz-adv-x="512" 
d="M348 0h-183v1456h183v-1456zM518 1584v-10h-142l-120 170l-120 -170h-142v12l209 272h105z" />
    <glyph glyph-name="Idieresis" unicode="&#xcf;" horiz-adv-x="512" 
d="M348 0h-183v1456h183v-1456zM-65 1693q0 45 27.5 75.5t81.5 30.5t82 -30.5t28 -75.5t-28 -75t-82 -30t-81.5 30t-27.5 75zM365 1691q0 45 27.5 76t81.5 31t82 -31t28 -76t-28 -75t-82 -30t-81.5 30t-27.5 75z" />
    <glyph glyph-name="Ntilde" unicode="&#xd1;" horiz-adv-x="1268" 
d="M1108 0h-184l-583 1122v-1122h-184v1456h184l585 -1127v1127h182v-1456zM932 1814q0 -55 -14.5 -100t-39.5 -76.5t-59 -48.5t-73 -17q-42 0 -69.5 15t-50 32.5t-46 32.5t-58.5 15q-34 0 -56.5 -32t-22.5 -80l-115 7q0 55 14 100.5t39 78t59 50.5t73 18q34 0 61 -15
t52 -33t51.5 -33t59.5 -15q34 0 57 32.5t23 80.5z" />
    <glyph glyph-name="Ograve" unicode="&#xd2;" horiz-adv-x="1230" 
d="M1104 600q0 -155 -34 -271t-97 -193.5t-153.5 -116.5t-203.5 -39q-110 0 -200 39t-155 116.5t-100.5 193.5t-35.5 271v253q0 154 35.5 270.5t99.5 195t154 118t200 39.5q113 0 203.5 -39.5t154.5 -118t98 -195t34 -270.5v-253zM921 855q0 120 -20 206.5t-59 142t-96 81.5
t-132 26q-71 0 -127.5 -26t-96.5 -81.5t-61.5 -142t-21.5 -206.5v-255q0 -121 22 -207.5t62 -142t97 -81.5t128 -26q75 0 132 26t95.5 81.5t58 142t19.5 207.5v255zM724 1552h-159l-258 294h223z" />
    <glyph glyph-name="Oacute" unicode="&#xd3;" horiz-adv-x="1230" 
d="M1104 600q0 -155 -34 -271t-97 -193.5t-153.5 -116.5t-203.5 -39q-110 0 -200 39t-155 116.5t-100.5 193.5t-35.5 271v253q0 154 35.5 270.5t99.5 195t154 118t200 39.5q113 0 203.5 -39.5t154.5 -118t98 -195t34 -270.5v-253zM921 855q0 120 -20 206.5t-59 142t-96 81.5
t-132 26q-71 0 -127.5 -26t-96.5 -81.5t-61.5 -142t-21.5 -206.5v-255q0 -121 22 -207.5t62 -142t97 -81.5t128 -26q75 0 132 26t95.5 81.5t58 142t19.5 207.5v255zM709 1846h224l-268 -294h-149z" />
    <glyph glyph-name="Ocircumflex" unicode="&#xd4;" horiz-adv-x="1230" 
d="M1104 600q0 -155 -34 -271t-97 -193.5t-153.5 -116.5t-203.5 -39q-110 0 -200 39t-155 116.5t-100.5 193.5t-35.5 271v253q0 154 35.5 270.5t99.5 195t154 118t200 39.5q113 0 203.5 -39.5t154.5 -118t98 -195t34 -270.5v-253zM921 855q0 120 -20 206.5t-59 142t-96 81.5
t-132 26q-71 0 -127.5 -26t-96.5 -81.5t-61.5 -142t-21.5 -206.5v-255q0 -121 22 -207.5t62 -142t97 -81.5t128 -26q75 0 132 26t95.5 81.5t58 142t19.5 207.5v255zM880 1574v-10h-142l-120 170l-120 -170h-142v12l209 272h105z" />
    <glyph glyph-name="Otilde" unicode="&#xd5;" horiz-adv-x="1230" 
d="M1104 600q0 -155 -34 -271t-97 -193.5t-153.5 -116.5t-203.5 -39q-110 0 -200 39t-155 116.5t-100.5 193.5t-35.5 271v253q0 154 35.5 270.5t99.5 195t154 118t200 39.5q113 0 203.5 -39.5t154.5 -118t98 -195t34 -270.5v-253zM921 855q0 120 -20 206.5t-59 142t-96 81.5
t-132 26q-71 0 -127.5 -26t-96.5 -81.5t-61.5 -142t-21.5 -206.5v-255q0 -121 22 -207.5t62 -142t97 -81.5t128 -26q75 0 132 26t95.5 81.5t58 142t19.5 207.5v255zM920 1816q0 -55 -14.5 -100t-39.5 -76.5t-59 -48.5t-73 -17q-42 0 -69.5 15t-50 32.5t-46 32.5t-58.5 15
q-34 0 -56.5 -32t-22.5 -80l-115 7q0 55 14 100.5t39 78t59 50.5t73 18q34 0 61 -15t52 -33t51.5 -33t59.5 -15q34 0 57 32.5t23 80.5z" />
    <glyph glyph-name="Odieresis" unicode="&#xd6;" horiz-adv-x="1230" 
d="M1104 600q0 -155 -34 -271t-97 -193.5t-153.5 -116.5t-203.5 -39q-110 0 -200 39t-155 116.5t-100.5 193.5t-35.5 271v253q0 154 35.5 270.5t99.5 195t154 118t200 39.5q113 0 203.5 -39.5t154.5 -118t98 -195t34 -270.5v-253zM921 855q0 120 -20 206.5t-59 142t-96 81.5
t-132 26q-71 0 -127.5 -26t-96.5 -81.5t-61.5 -142t-21.5 -206.5v-255q0 -121 22 -207.5t62 -142t97 -81.5t128 -26q75 0 132 26t95.5 81.5t58 142t19.5 207.5v255zM297 1683q0 45 27.5 75.5t81.5 30.5t82 -30.5t28 -75.5t-28 -75t-82 -30t-81.5 30t-27.5 75zM727 1681
q0 45 27.5 76t81.5 31t82 -31t28 -76t-28 -75t-82 -30t-81.5 30t-27.5 75z" />
    <glyph glyph-name="Ugrave" unicode="&#xd9;" horiz-adv-x="1150" 
d="M1025 1456v-1026q0 -123 -37 -208.5t-99 -139.5t-143 -78t-170 -24q-94 0 -175.5 24t-141.5 78t-94.5 139.5t-34.5 208.5v1026h182v-1026q0 -85 19 -141.5t53.5 -90.5t83 -48t108.5 -14t109 14t83.5 48t53.5 90.5t19 141.5v1026h184zM681 1550h-159l-258 294h223z" />
    <glyph glyph-name="Uacute" unicode="&#xda;" horiz-adv-x="1150" 
d="M1025 1456v-1026q0 -123 -37 -208.5t-99 -139.5t-143 -78t-170 -24q-94 0 -175.5 24t-141.5 78t-94.5 139.5t-34.5 208.5v1026h182v-1026q0 -85 19 -141.5t53.5 -90.5t83 -48t108.5 -14t109 14t83.5 48t53.5 90.5t19 141.5v1026h184zM666 1844h224l-268 -294h-149z" />
    <glyph glyph-name="Ucircumflex" unicode="&#xdb;" horiz-adv-x="1150" 
d="M1025 1456v-1026q0 -123 -37 -208.5t-99 -139.5t-143 -78t-170 -24q-94 0 -175.5 24t-141.5 78t-94.5 139.5t-34.5 208.5v1026h182v-1026q0 -85 19 -141.5t53.5 -90.5t83 -48t108.5 -14t109 14t83.5 48t53.5 90.5t19 141.5v1026h184zM837 1572v-10h-142l-120 170
l-120 -170h-142v12l209 272h105z" />
    <glyph glyph-name="Udieresis" unicode="&#xdc;" horiz-adv-x="1150" 
d="M1025 1456v-1026q0 -123 -37 -208.5t-99 -139.5t-143 -78t-170 -24q-94 0 -175.5 24t-141.5 78t-94.5 139.5t-34.5 208.5v1026h182v-1026q0 -85 19 -141.5t53.5 -90.5t83 -48t108.5 -14t109 14t83.5 48t53.5 90.5t19 141.5v1026h184zM254 1681q0 45 27.5 75.5t81.5 30.5
t82 -30.5t28 -75.5t-28 -75t-82 -30t-81.5 30t-27.5 75zM684 1679q0 45 27.5 76t81.5 31t82 -31t28 -76t-28 -75t-82 -30t-81.5 30t-27.5 75z" />
    <glyph glyph-name="Yacute" unicode="&#xdd;" horiz-adv-x="1074" 
d="M536 725l298 731h207l-414 -913v-543h-183v543l-414 913h208zM631 1844h224l-268 -294h-149z" />
    <glyph glyph-name="agrave" unicode="&#xe0;" horiz-adv-x="981" 
d="M689 0q-9 20 -14.5 51.5t-8.5 66.5q-19 -28 -43.5 -53t-55 -44t-66 -30t-75.5 -11q-71 0 -128.5 20t-98.5 60t-63 98.5t-22 136.5t27 144t80 114t133 75.5t186 27.5h123v115q0 97 -43 138t-131 41q-43 0 -76.5 -13.5t-56.5 -36.5t-35 -53.5t-12 -64.5h-177
q0 58 25.5 115.5t73 103t115.5 73.5t152 28q75 0 137.5 -18t108 -58t70.5 -103t25 -154v-533q0 -27 2 -57t6.5 -59t11 -55.5t14.5 -48.5v-16h-184zM453 141q37 0 70 11t60 28.5t47.5 40t32.5 46.5v258h-93q-64 0 -115.5 -14t-88 -40.5t-56 -65.5t-19.5 -89q0 -49 10 -82.5
t30 -54t50.5 -29.5t71.5 -9zM615 1240h-159l-258 294h223z" />
    <glyph glyph-name="aacute" unicode="&#xe1;" horiz-adv-x="981" 
d="M689 0q-9 20 -14.5 51.5t-8.5 66.5q-19 -28 -43.5 -53t-55 -44t-66 -30t-75.5 -11q-71 0 -128.5 20t-98.5 60t-63 98.5t-22 136.5t27 144t80 114t133 75.5t186 27.5h123v115q0 97 -43 138t-131 41q-43 0 -76.5 -13.5t-56.5 -36.5t-35 -53.5t-12 -64.5h-177
q0 58 25.5 115.5t73 103t115.5 73.5t152 28q75 0 137.5 -18t108 -58t70.5 -103t25 -154v-533q0 -27 2 -57t6.5 -59t11 -55.5t14.5 -48.5v-16h-184zM453 141q37 0 70 11t60 28.5t47.5 40t32.5 46.5v258h-93q-64 0 -115.5 -14t-88 -40.5t-56 -65.5t-19.5 -89q0 -49 10 -82.5
t30 -54t50.5 -29.5t71.5 -9zM600 1534h224l-268 -294h-149z" />
    <glyph glyph-name="acircumflex" unicode="&#xe2;" horiz-adv-x="981" 
d="M689 0q-9 20 -14.5 51.5t-8.5 66.5q-19 -28 -43.5 -53t-55 -44t-66 -30t-75.5 -11q-71 0 -128.5 20t-98.5 60t-63 98.5t-22 136.5t27 144t80 114t133 75.5t186 27.5h123v115q0 97 -43 138t-131 41q-43 0 -76.5 -13.5t-56.5 -36.5t-35 -53.5t-12 -64.5h-177
q0 58 25.5 115.5t73 103t115.5 73.5t152 28q75 0 137.5 -18t108 -58t70.5 -103t25 -154v-533q0 -27 2 -57t6.5 -59t11 -55.5t14.5 -48.5v-16h-184zM453 141q37 0 70 11t60 28.5t47.5 40t32.5 46.5v258h-93q-64 0 -115.5 -14t-88 -40.5t-56 -65.5t-19.5 -89q0 -49 10 -82.5
t30 -54t50.5 -29.5t71.5 -9zM771 1262v-10h-142l-120 170l-120 -170h-142v12l209 272h105z" />
    <glyph glyph-name="atilde" unicode="&#xe3;" horiz-adv-x="981" 
d="M689 0q-9 20 -14.5 51.5t-8.5 66.5q-19 -28 -43.5 -53t-55 -44t-66 -30t-75.5 -11q-71 0 -128.5 20t-98.5 60t-63 98.5t-22 136.5t27 144t80 114t133 75.5t186 27.5h123v115q0 97 -43 138t-131 41q-43 0 -76.5 -13.5t-56.5 -36.5t-35 -53.5t-12 -64.5h-177
q0 58 25.5 115.5t73 103t115.5 73.5t152 28q75 0 137.5 -18t108 -58t70.5 -103t25 -154v-533q0 -27 2 -57t6.5 -59t11 -55.5t14.5 -48.5v-16h-184zM453 141q37 0 70 11t60 28.5t47.5 40t32.5 46.5v258h-93q-64 0 -115.5 -14t-88 -40.5t-56 -65.5t-19.5 -89q0 -49 10 -82.5
t30 -54t50.5 -29.5t71.5 -9zM811 1504q0 -55 -14.5 -100t-39.5 -76.5t-59 -48.5t-73 -17q-42 0 -69.5 15t-50 32.5t-46 32.5t-58.5 15q-34 0 -56.5 -32t-22.5 -80l-115 7q0 55 14 100.5t39 78t59 50.5t73 18q34 0 61 -15t52 -33t51.5 -33t59.5 -15q34 0 57 32.5t23 80.5z
" />
    <glyph glyph-name="adieresis" unicode="&#xe4;" horiz-adv-x="981" 
d="M689 0q-9 20 -14.5 51.5t-8.5 66.5q-19 -28 -43.5 -53t-55 -44t-66 -30t-75.5 -11q-71 0 -128.5 20t-98.5 60t-63 98.5t-22 136.5t27 144t80 114t133 75.5t186 27.5h123v115q0 97 -43 138t-131 41q-43 0 -76.5 -13.5t-56.5 -36.5t-35 -53.5t-12 -64.5h-177
q0 58 25.5 115.5t73 103t115.5 73.5t152 28q75 0 137.5 -18t108 -58t70.5 -103t25 -154v-533q0 -27 2 -57t6.5 -59t11 -55.5t14.5 -48.5v-16h-184zM453 141q37 0 70 11t60 28.5t47.5 40t32.5 46.5v258h-93q-64 0 -115.5 -14t-88 -40.5t-56 -65.5t-19.5 -89q0 -49 10 -82.5
t30 -54t50.5 -29.5t71.5 -9zM188 1371q0 45 27.5 75.5t81.5 30.5t82 -30.5t28 -75.5t-28 -75t-82 -30t-81.5 30t-27.5 75zM618 1369q0 45 27.5 76t81.5 31t82 -31t28 -76t-28 -75t-82 -30t-81.5 30t-27.5 75z" />
    <glyph glyph-name="aring" unicode="&#xe5;" horiz-adv-x="981" 
d="M689 0q-9 20 -14.5 51.5t-8.5 66.5q-19 -28 -43.5 -53t-55 -44t-66 -30t-75.5 -11q-71 0 -128.5 20t-98.5 60t-63 98.5t-22 136.5t27 144t80 114t133 75.5t186 27.5h123v115q0 97 -43 138t-131 41q-43 0 -76.5 -13.5t-56.5 -36.5t-35 -53.5t-12 -64.5h-177
q0 58 25.5 115.5t73 103t115.5 73.5t152 28q75 0 137.5 -18t108 -58t70.5 -103t25 -154v-533q0 -27 2 -57t6.5 -59t11 -55.5t14.5 -48.5v-16h-184zM453 141q37 0 70 11t60 28.5t47.5 40t32.5 46.5v258h-93q-64 0 -115.5 -14t-88 -40.5t-56 -65.5t-19.5 -89q0 -49 10 -82.5
t30 -54t50.5 -29.5t71.5 -9zM294 1419q0 43 16.5 81t45.5 66.5t68 44.5t85 16q45 0 84.5 -16t68.5 -44.5t45.5 -66.5t16.5 -81q0 -44 -16.5 -81t-45.5 -64.5t-68.5 -43t-84.5 -15.5q-46 0 -85 15.5t-68 43t-45.5 64.5t-16.5 81zM393 1419q0 -22 8.5 -43t24 -37t36.5 -25.5
t47 -9.5q25 0 46.5 9.5t37 25t24 36.5t8.5 44q0 24 -8.5 45t-24 37.5t-37 26t-46.5 9.5q-26 0 -47 -9.5t-36.5 -26t-24 -37.5t-8.5 -45z" />
    <glyph glyph-name="aringacute" unicode="&#x1fb;" horiz-adv-x="981" 
d="M689 0q-9 20 -14.5 51.5t-8.5 66.5q-19 -28 -43.5 -53t-55 -44t-66 -30t-75.5 -11q-71 0 -128.5 20t-98.5 60t-63 98.5t-22 136.5t27 144t80 114t133 75.5t186 27.5h123v115q0 97 -43 138t-131 41q-43 0 -76.5 -13.5t-56.5 -36.5t-35 -53.5t-12 -64.5h-177
q0 58 25.5 115.5t73 103t115.5 73.5t152 28q75 0 137.5 -18t108 -58t70.5 -103t25 -154v-533q0 -27 2 -57t6.5 -59t11 -55.5t14.5 -48.5v-16h-184zM453 141q37 0 70 11t60 28.5t47.5 40t32.5 46.5v258h-93q-64 0 -115.5 -14t-88 -40.5t-56 -65.5t-19.5 -89q0 -49 10 -82.5
t30 -54t50.5 -29.5t71.5 -9zM593 1631h176l-191 -184h-103zM363 1232q0 36 12 67t32.5 53t48 34.5t57.5 12.5t56.5 -12.5t46 -34.5t31 -53t11.5 -67t-11.5 -66t-31 -51.5t-46 -33.5t-56.5 -12t-57.5 12t-48 33.5t-32.5 51.5t-12 66zM440 1232q0 -36 21.5 -60.5t51.5 -24.5
q29 0 49 24.5t20 60.5q0 38 -20 63t-49 25q-30 0 -51.5 -25t-21.5 -63z" />
    <glyph glyph-name="ccedilla" unicode="&#xe7;" horiz-adv-x="946" 
d="M508 131q39 0 74 12t62 37.5t43.5 65t19.5 95.5h167q-3 -81 -33.5 -147.5t-80 -114t-114.5 -73.5t-138 -26q-105 0 -182.5 34t-128.5 98t-76 157t-25 211v122q0 118 25 210.5t76 157t128 98.5t182 34q82 0 148.5 -26.5t114 -77t74.5 -123.5t30 -165h-167
q-6 120 -57.5 180t-142.5 60q-70 0 -115 -25t-71.5 -70.5t-37 -109.5t-10.5 -143v-122q0 -80 10 -144.5t36.5 -110t72 -70t116.5 -24.5zM532 -9l-10 -52q23 -5 45 -16.5t39.5 -32t28.5 -51t11 -73.5q0 -47 -16.5 -85.5t-48.5 -66.5t-80 -43t-112 -15l-6 107q56 0 92 23
t36 76q0 25 -7.5 41.5t-23.5 27t-41 16.5t-60 10l28 134h125z" />
    <glyph glyph-name="egrave" unicode="&#xe8;" horiz-adv-x="959" 
d="M519 -20q-97 0 -175 29t-132.5 88.5t-83.5 150.5t-29 215v122q0 143 34 241.5t89.5 160t127.5 88.5t149 27q102 0 174 -33.5t118 -98.5t67 -160t21 -219v-103h-604v-25q0 -174 65.5 -253t188.5 -79q45 0 81 9t66 25.5t55 39t47 49.5l92 -112q-22 -31 -53 -60t-74 -51.5
t-98.5 -36.5t-125.5 -14zM499 950q-46 0 -85 -14t-68.5 -49.5t-47.5 -95.5t-22 -151h426v24q-3 63 -13.5 115.5t-33 90.5t-60.5 59t-96 21zM600 1240h-159l-258 294h223z" />
    <glyph glyph-name="eacute" unicode="&#xe9;" horiz-adv-x="959" 
d="M519 -20q-97 0 -175 29t-132.5 88.5t-83.5 150.5t-29 215v122q0 143 34 241.5t89.5 160t127.5 88.5t149 27q102 0 174 -33.5t118 -98.5t67 -160t21 -219v-103h-604v-25q0 -174 65.5 -253t188.5 -79q45 0 81 9t66 25.5t55 39t47 49.5l92 -112q-22 -31 -53 -60t-74 -51.5
t-98.5 -36.5t-125.5 -14zM499 950q-46 0 -85 -14t-68.5 -49.5t-47.5 -95.5t-22 -151h426v24q-3 63 -13.5 115.5t-33 90.5t-60.5 59t-96 21zM585 1534h224l-268 -294h-149z" />
    <glyph glyph-name="ecircumflex" unicode="&#xea;" horiz-adv-x="959" 
d="M519 -20q-97 0 -175 29t-132.5 88.5t-83.5 150.5t-29 215v122q0 143 34 241.5t89.5 160t127.5 88.5t149 27q102 0 174 -33.5t118 -98.5t67 -160t21 -219v-103h-604v-25q0 -174 65.5 -253t188.5 -79q45 0 81 9t66 25.5t55 39t47 49.5l92 -112q-22 -31 -53 -60t-74 -51.5
t-98.5 -36.5t-125.5 -14zM499 950q-46 0 -85 -14t-68.5 -49.5t-47.5 -95.5t-22 -151h426v24q-3 63 -13.5 115.5t-33 90.5t-60.5 59t-96 21zM756 1262v-10h-142l-120 170l-120 -170h-142v12l209 272h105z" />
    <glyph glyph-name="edieresis" unicode="&#xeb;" horiz-adv-x="959" 
d="M519 -20q-97 0 -175 29t-132.5 88.5t-83.5 150.5t-29 215v122q0 143 34 241.5t89.5 160t127.5 88.5t149 27q102 0 174 -33.5t118 -98.5t67 -160t21 -219v-103h-604v-25q0 -174 65.5 -253t188.5 -79q45 0 81 9t66 25.5t55 39t47 49.5l92 -112q-22 -31 -53 -60t-74 -51.5
t-98.5 -36.5t-125.5 -14zM499 950q-46 0 -85 -14t-68.5 -49.5t-47.5 -95.5t-22 -151h426v24q-3 63 -13.5 115.5t-33 90.5t-60.5 59t-96 21zM173 1371q0 45 27.5 75.5t81.5 30.5t82 -30.5t28 -75.5t-28 -75t-82 -30t-81.5 30t-27.5 75zM603 1369q0 45 27.5 76t81.5 31t82 -31
t28 -76t-28 -75t-82 -30t-81.5 30t-27.5 75z" />
    <glyph glyph-name="igrave" unicode="&#xec;" horiz-adv-x="481" 
d="M323 0h-177v1082h177v-1082zM346 1239h-159l-258 294h223z" />
    <glyph glyph-name="iacute" unicode="&#xed;" horiz-adv-x="481" 
d="M323 0h-177v1082h177v-1082zM330 1533h224l-268 -294h-149z" />
    <glyph glyph-name="icircumflex" unicode="&#xee;" horiz-adv-x="481" 
d="M323 0h-177v1082h177v-1082zM502 1261v-10h-142l-120 170l-120 -170h-142v12l209 272h105z" />
    <glyph glyph-name="idieresis" unicode="&#xef;" horiz-adv-x="481" 
d="M323 0h-177v1082h177v-1082zM-81 1370q0 45 27.5 75.5t81.5 30.5t82 -30.5t28 -75.5t-28 -75t-82 -30t-81.5 30t-27.5 75zM349 1368q0 45 27.5 76t81.5 31t82 -31t28 -76t-28 -75t-82 -30t-81.5 30t-27.5 75z" />
    <glyph glyph-name="ntilde" unicode="&#xf1;" horiz-adv-x="991" 
d="M299 1082l5 -117q49 65 115.5 101t147.5 36q66 0 120 -21.5t92 -69t58.5 -122t20.5 -180.5v-709h-176v711q0 127 -42.5 180.5t-127.5 53.5q-66 0 -118.5 -44t-84.5 -115v-786h-177v1082h167zM802 1504q0 -55 -14.5 -100t-39.5 -76.5t-59 -48.5t-73 -17q-42 0 -69.5 15
t-50 32.5t-46 32.5t-58.5 15q-34 0 -56.5 -32t-22.5 -80l-115 7q0 55 14 100.5t39 78t59 50.5t73 18q34 0 61 -15t52 -33t51.5 -33t59.5 -15q34 0 57 32.5t23 80.5z" />
    <glyph glyph-name="ograve" unicode="&#xf2;" 
d="M95 591q0 127 32.5 222.5t89 159.5t132.5 96.5t163 32.5q88 0 165 -32.5t133.5 -96.5t89 -159.5t32.5 -222.5v-102q0 -126 -32.5 -221.5t-89 -159.5t-132.5 -96t-164 -32t-164.5 32t-133 96t-89 159.5t-32.5 221.5v102zM272 489q0 -90 18.5 -157t51 -111.5t76.5 -67
t96 -22.5q241 0 241 358v102q0 89 -18.5 156t-51 112t-77 68t-96.5 23q-51 0 -95 -23t-76 -68t-50.5 -112t-18.5 -156v-102zM608 1240h-159l-258 294h223z" />
    <glyph glyph-name="oacute" unicode="&#xf3;" 
d="M95 591q0 127 32.5 222.5t89 159.5t132.5 96.5t163 32.5q88 0 165 -32.5t133.5 -96.5t89 -159.5t32.5 -222.5v-102q0 -126 -32.5 -221.5t-89 -159.5t-132.5 -96t-164 -32t-164.5 32t-133 96t-89 159.5t-32.5 221.5v102zM272 489q0 -90 18.5 -157t51 -111.5t76.5 -67
t96 -22.5q241 0 241 358v102q0 89 -18.5 156t-51 112t-77 68t-96.5 23q-51 0 -95 -23t-76 -68t-50.5 -112t-18.5 -156v-102zM593 1534h224l-268 -294h-149z" />
    <glyph glyph-name="ocircumflex" unicode="&#xf4;" 
d="M95 591q0 127 32.5 222.5t89 159.5t132.5 96.5t163 32.5q88 0 165 -32.5t133.5 -96.5t89 -159.5t32.5 -222.5v-102q0 -126 -32.5 -221.5t-89 -159.5t-132.5 -96t-164 -32t-164.5 32t-133 96t-89 159.5t-32.5 221.5v102zM272 489q0 -90 18.5 -157t51 -111.5t76.5 -67
t96 -22.5q241 0 241 358v102q0 89 -18.5 156t-51 112t-77 68t-96.5 23q-51 0 -95 -23t-76 -68t-50.5 -112t-18.5 -156v-102zM764 1262v-10h-142l-120 170l-120 -170h-142v12l209 272h105z" />
    <glyph glyph-name="otilde" unicode="&#xf5;" 
d="M95 591q0 127 32.5 222.5t89 159.5t132.5 96.5t163 32.5q88 0 165 -32.5t133.5 -96.5t89 -159.5t32.5 -222.5v-102q0 -126 -32.5 -221.5t-89 -159.5t-132.5 -96t-164 -32t-164.5 32t-133 96t-89 159.5t-32.5 221.5v102zM272 489q0 -90 18.5 -157t51 -111.5t76.5 -67
t96 -22.5q241 0 241 358v102q0 89 -18.5 156t-51 112t-77 68t-96.5 23q-51 0 -95 -23t-76 -68t-50.5 -112t-18.5 -156v-102zM804 1504q0 -55 -14.5 -100t-39.5 -76.5t-59 -48.5t-73 -17q-42 0 -69.5 15t-50 32.5t-46 32.5t-58.5 15q-34 0 -56.5 -32t-22.5 -80l-115 7
q0 55 14 100.5t39 78t59 50.5t73 18q34 0 61 -15t52 -33t51.5 -33t59.5 -15q34 0 57 32.5t23 80.5z" />
    <glyph glyph-name="odieresis" unicode="&#xf6;" 
d="M95 591q0 127 32.5 222.5t89 159.5t132.5 96.5t163 32.5q88 0 165 -32.5t133.5 -96.5t89 -159.5t32.5 -222.5v-102q0 -126 -32.5 -221.5t-89 -159.5t-132.5 -96t-164 -32t-164.5 32t-133 96t-89 159.5t-32.5 221.5v102zM272 489q0 -90 18.5 -157t51 -111.5t76.5 -67
t96 -22.5q241 0 241 358v102q0 89 -18.5 156t-51 112t-77 68t-96.5 23q-51 0 -95 -23t-76 -68t-50.5 -112t-18.5 -156v-102zM181 1371q0 45 27.5 75.5t81.5 30.5t82 -30.5t28 -75.5t-28 -75t-82 -30t-81.5 30t-27.5 75zM611 1369q0 45 27.5 76t81.5 31t82 -31t28 -76
t-28 -75t-82 -30t-81.5 30t-27.5 75z" />
    <glyph glyph-name="ugrave" unicode="&#xf9;" horiz-adv-x="990" 
d="M684 95q-42 -55 -105.5 -85t-151.5 -30q-67 0 -122 22.5t-94 71t-60.5 125t-21.5 184.5v699h176v-701q0 -73 13.5 -120.5t35 -75t49 -38t54.5 -10.5q88 0 141 39t81 105v801h177v-1082h-168zM600 1240h-159l-258 294h223z" />
    <glyph glyph-name="uacute" unicode="&#xfa;" horiz-adv-x="990" 
d="M684 95q-42 -55 -105.5 -85t-151.5 -30q-67 0 -122 22.5t-94 71t-60.5 125t-21.5 184.5v699h176v-701q0 -73 13.5 -120.5t35 -75t49 -38t54.5 -10.5q88 0 141 39t81 105v801h177v-1082h-168zM585 1534h224l-268 -294h-149z" />
    <glyph glyph-name="ucircumflex" unicode="&#xfb;" horiz-adv-x="990" 
d="M684 95q-42 -55 -105.5 -85t-151.5 -30q-67 0 -122 22.5t-94 71t-60.5 125t-21.5 184.5v699h176v-701q0 -73 13.5 -120.5t35 -75t49 -38t54.5 -10.5q88 0 141 39t81 105v801h177v-1082h-168zM756 1262v-10h-142l-120 170l-120 -170h-142v12l209 272h105z" />
    <glyph glyph-name="udieresis" unicode="&#xfc;" horiz-adv-x="990" 
d="M684 95q-42 -55 -105.5 -85t-151.5 -30q-67 0 -122 22.5t-94 71t-60.5 125t-21.5 184.5v699h176v-701q0 -73 13.5 -120.5t35 -75t49 -38t54.5 -10.5q88 0 141 39t81 105v801h177v-1082h-168zM173 1371q0 45 27.5 75.5t81.5 30.5t82 -30.5t28 -75.5t-28 -75t-82 -30
t-81.5 30t-27.5 75zM603 1369q0 45 27.5 76t81.5 31t82 -31t28 -76t-28 -75t-82 -30t-81.5 30t-27.5 75z" />
    <glyph glyph-name="yacute" unicode="&#xfd;" horiz-adv-x="853" 
d="M428 294l197 788h188l-358 -1249q-12 -40 -33.5 -87t-54.5 -87.5t-79.5 -68t-107.5 -27.5q-10 0 -23 2t-26 4.5t-24.5 5t-18.5 4.5v150q6 -2 19.5 -3t19.5 -1q39 0 69 9t53.5 29.5t41 54.5t31.5 84l31 107l-318 1073h193zM536 1534h224l-268 -294h-149z" />
    <glyph glyph-name="ydieresis" unicode="&#xff;" horiz-adv-x="853" 
d="M428 294l197 788h188l-358 -1249q-12 -40 -33.5 -87t-54.5 -87.5t-79.5 -68t-107.5 -27.5q-10 0 -23 2t-26 4.5t-24.5 5t-18.5 4.5v150q6 -2 19.5 -3t19.5 -1q39 0 69 9t53.5 29.5t41 54.5t31.5 84l31 107l-318 1073h193zM124 1371q0 45 27.5 75.5t81.5 30.5t82 -30.5
t28 -75.5t-28 -75t-82 -30t-81.5 30t-27.5 75zM554 1369q0 45 27.5 76t81.5 31t82 -31t28 -76t-28 -75t-82 -30t-81.5 30t-27.5 75z" />
    <glyph glyph-name="Amacron" unicode="&#x100;" horiz-adv-x="1180" 
d="M836 380h-492l-113 -380h-188l469 1456h157l470 -1456h-188zM392 538h397l-199 662zM906 1631h-614v143h614v-143z" />
    <glyph glyph-name="amacron" unicode="&#x101;" horiz-adv-x="981" 
d="M689 0q-9 20 -14.5 51.5t-8.5 66.5q-19 -28 -43.5 -53t-55 -44t-66 -30t-75.5 -11q-71 0 -128.5 20t-98.5 60t-63 98.5t-22 136.5t27 144t80 114t133 75.5t186 27.5h123v115q0 97 -43 138t-131 41q-43 0 -76.5 -13.5t-56.5 -36.5t-35 -53.5t-12 -64.5h-177
q0 58 25.5 115.5t73 103t115.5 73.5t152 28q75 0 137.5 -18t108 -58t70.5 -103t25 -154v-533q0 -27 2 -57t6.5 -59t11 -55.5t14.5 -48.5v-16h-184zM453 141q37 0 70 11t60 28.5t47.5 40t32.5 46.5v258h-93q-64 0 -115.5 -14t-88 -40.5t-56 -65.5t-19.5 -89q0 -49 10 -82.5
t30 -54t50.5 -29.5t71.5 -9zM821 1321h-614v143h614v-143z" />
    <glyph glyph-name="Abreve" unicode="&#x102;" horiz-adv-x="1180" 
d="M836 380h-492l-113 -380h-188l469 1456h157l470 -1456h-188zM392 538h397l-199 662zM894 1806q0 -59 -20.5 -108t-59.5 -84.5t-94.5 -55.5t-124.5 -20t-124.5 20t-94.5 55.5t-60 84.5t-21 108h151q0 -30 8 -57t25.5 -47.5t46 -32.5t69.5 -12q40 0 68.5 12t46.5 32.5
t26 47.5t8 57h150z" />
    <glyph glyph-name="abreve" unicode="&#x103;" horiz-adv-x="981" 
d="M689 0q-9 20 -14.5 51.5t-8.5 66.5q-19 -28 -43.5 -53t-55 -44t-66 -30t-75.5 -11q-71 0 -128.5 20t-98.5 60t-63 98.5t-22 136.5t27 144t80 114t133 75.5t186 27.5h123v115q0 97 -43 138t-131 41q-43 0 -76.5 -13.5t-56.5 -36.5t-35 -53.5t-12 -64.5h-177
q0 58 25.5 115.5t73 103t115.5 73.5t152 28q75 0 137.5 -18t108 -58t70.5 -103t25 -154v-533q0 -27 2 -57t6.5 -59t11 -55.5t14.5 -48.5v-16h-184zM453 141q37 0 70 11t60 28.5t47.5 40t32.5 46.5v258h-93q-64 0 -115.5 -14t-88 -40.5t-56 -65.5t-19.5 -89q0 -49 10 -82.5
t30 -54t50.5 -29.5t71.5 -9zM809 1496q0 -59 -20.5 -108t-59.5 -84.5t-94.5 -55.5t-124.5 -20t-124.5 20t-94.5 55.5t-60 84.5t-21 108h151q0 -30 8 -57t25.5 -47.5t46 -32.5t69.5 -12q40 0 68.5 12t46.5 32.5t26 47.5t8 57h150z" />
    <glyph glyph-name="Aogonek" unicode="&#x104;" horiz-adv-x="1180" 
d="M669 1456l470 -1456h-38q-27 -24 -52 -49t-45 -53t-32 -57.5t-12 -62.5t14 -52.5t49 -19.5q27 0 48 9t35 17l10 -121q-21 -15 -54.5 -29.5t-85.5 -14.5q-35 0 -66 12t-53.5 36t-35.5 59.5t-13 82.5q0 66 32 129.5t109 119.5l-113 374h-492l-113 -380h-188l469 1456h157z
M392 538h397l-199 662z" />
    <glyph glyph-name="aogonek" unicode="&#x105;" horiz-adv-x="981" 
d="M687 5q-8 20 -13.5 50.5t-7.5 62.5q-19 -28 -43.5 -53t-55 -44t-66 -30t-75.5 -11q-71 0 -128.5 20t-98.5 60t-63 98.5t-22 136.5t27 144t80 114t133 75.5t186 27.5h123v115q0 97 -43 138t-131 41q-43 0 -76.5 -13.5t-56.5 -36.5t-35 -53.5t-12 -64.5h-177
q0 58 25.5 115.5t73 103t115.5 73.5t152 28q75 0 137.5 -18t108 -58t70.5 -103t25 -154v-533q0 -27 2 -57t6.5 -59t11 -55.5t14.5 -48.5v-16h-33q-27 -24 -52 -49t-45 -53t-32 -57.5t-12 -62.5t14 -52.5t49 -19.5q27 0 48 9t35 17l10 -121q-21 -15 -54.5 -29.5t-85.5 -14.5
q-35 0 -66 12t-53.5 36t-35.5 59.5t-13 82.5q0 65 31.5 128.5t108.5 119.5zM453 141q37 0 70 11t60 28.5t47.5 40t32.5 46.5v258h-93q-64 0 -115.5 -14t-88 -40.5t-56 -65.5t-19.5 -89q0 -49 10 -82.5t30 -54t50.5 -29.5t71.5 -9z" />
    <glyph glyph-name="Cacute" unicode="&#x106;" horiz-adv-x="1161" 
d="M1070 462q-6 -113 -37.5 -202t-89.5 -151.5t-143.5 -95.5t-198.5 -33q-110 0 -198 43t-150 123t-95.5 193t-33.5 254v269q0 140 33.5 253.5t97 193.5t155.5 123.5t208 43.5q106 0 187.5 -32t138.5 -94t89 -153t37 -209h-185q-6 86 -23 148t-49 102.5t-80 60t-115 19.5
q-80 0 -138 -32.5t-96 -91.5t-56.5 -143t-18.5 -187v-271q0 -96 15.5 -179t50 -145t90.5 -97.5t136 -35.5q75 0 126.5 18.5t84 58t49.5 101t24 148.5h185zM682 1877h224l-268 -294h-149z" />
    <glyph glyph-name="cacute" unicode="&#x107;" horiz-adv-x="946" 
d="M508 131q39 0 74 12t62 37.5t43.5 65t19.5 95.5h167q-3 -81 -33.5 -147.5t-80 -114t-114.5 -73.5t-138 -26q-105 0 -182.5 34t-128.5 98t-76 157t-25 211v122q0 118 25 210.5t76 157t128 98.5t182 34q82 0 148.5 -26.5t114 -77t74.5 -123.5t30 -165h-167
q-6 120 -57.5 180t-142.5 60q-70 0 -115 -25t-71.5 -70.5t-37 -109.5t-10.5 -143v-122q0 -80 10 -144.5t36.5 -110t72 -70t116.5 -24.5zM555 1534h224l-268 -294h-149z" />
    <glyph glyph-name="Ccircumflex" unicode="&#x108;" horiz-adv-x="1161" 
d="M1070 462q-6 -113 -37.5 -202t-89.5 -151.5t-143.5 -95.5t-198.5 -33q-110 0 -198 43t-150 123t-95.5 193t-33.5 254v269q0 140 33.5 253.5t97 193.5t155.5 123.5t208 43.5q106 0 187.5 -32t138.5 -94t89 -153t37 -209h-185q-6 86 -23 148t-49 102.5t-80 60t-115 19.5
q-80 0 -138 -32.5t-96 -91.5t-56.5 -143t-18.5 -187v-271q0 -96 15.5 -179t50 -145t90.5 -97.5t136 -35.5q75 0 126.5 18.5t84 58t49.5 101t24 148.5h185zM853 1605v-10h-142l-120 170l-120 -170h-142v12l209 272h105z" />
    <glyph glyph-name="ccircumflex" unicode="&#x109;" horiz-adv-x="946" 
d="M508 131q39 0 74 12t62 37.5t43.5 65t19.5 95.5h167q-3 -81 -33.5 -147.5t-80 -114t-114.5 -73.5t-138 -26q-105 0 -182.5 34t-128.5 98t-76 157t-25 211v122q0 118 25 210.5t76 157t128 98.5t182 34q82 0 148.5 -26.5t114 -77t74.5 -123.5t30 -165h-167
q-6 120 -57.5 180t-142.5 60q-70 0 -115 -25t-71.5 -70.5t-37 -109.5t-10.5 -143v-122q0 -80 10 -144.5t36.5 -110t72 -70t116.5 -24.5zM726 1262v-10h-142l-120 170l-120 -170h-142v12l209 272h105z" />
    <glyph glyph-name="uni010A" unicode="&#x10a;" horiz-adv-x="1161" 
d="M1070 462q-6 -113 -37.5 -202t-89.5 -151.5t-143.5 -95.5t-198.5 -33q-110 0 -198 43t-150 123t-95.5 193t-33.5 254v269q0 140 33.5 253.5t97 193.5t155.5 123.5t208 43.5q106 0 187.5 -32t138.5 -94t89 -153t37 -209h-185q-6 86 -23 148t-49 102.5t-80 60t-115 19.5
q-80 0 -138 -32.5t-96 -91.5t-56.5 -143t-18.5 -187v-271q0 -96 15.5 -179t50 -145t90.5 -97.5t136 -35.5q75 0 126.5 18.5t84 58t49.5 101t24 148.5h185zM483 1710q0 45 27.5 76t81.5 31t82 -31t28 -76t-28 -75t-82 -30t-81.5 30t-27.5 75z" />
    <glyph glyph-name="uni010B" unicode="&#x10b;" horiz-adv-x="946" 
d="M508 131q39 0 74 12t62 37.5t43.5 65t19.5 95.5h167q-3 -81 -33.5 -147.5t-80 -114t-114.5 -73.5t-138 -26q-105 0 -182.5 34t-128.5 98t-76 157t-25 211v122q0 118 25 210.5t76 157t128 98.5t182 34q82 0 148.5 -26.5t114 -77t74.5 -123.5t30 -165h-167
q-6 120 -57.5 180t-142.5 60q-70 0 -115 -25t-71.5 -70.5t-37 -109.5t-10.5 -143v-122q0 -80 10 -144.5t36.5 -110t72 -70t116.5 -24.5zM356 1367q0 45 27.5 76t81.5 31t82 -31t28 -76t-28 -75t-82 -30t-81.5 30t-27.5 75z" />
    <glyph glyph-name="Ccaron" unicode="&#x10c;" horiz-adv-x="1161" 
d="M1070 462q-6 -113 -37.5 -202t-89.5 -151.5t-143.5 -95.5t-198.5 -33q-110 0 -198 43t-150 123t-95.5 193t-33.5 254v269q0 140 33.5 253.5t97 193.5t155.5 123.5t208 43.5q106 0 187.5 -32t138.5 -94t89 -153t37 -209h-185q-6 86 -23 148t-49 102.5t-80 60t-115 19.5
q-80 0 -138 -32.5t-96 -91.5t-56.5 -143t-18.5 -187v-271q0 -96 15.5 -179t50 -145t90.5 -97.5t136 -35.5q75 0 126.5 18.5t84 58t49.5 101t24 148.5h185zM590 1709l119 170h152v-10l-219 -274h-104l-216 274v10h148z" />
    <glyph glyph-name="ccaron" unicode="&#x10d;" horiz-adv-x="946" 
d="M508 131q39 0 74 12t62 37.5t43.5 65t19.5 95.5h167q-3 -81 -33.5 -147.5t-80 -114t-114.5 -73.5t-138 -26q-105 0 -182.5 34t-128.5 98t-76 157t-25 211v122q0 118 25 210.5t76 157t128 98.5t182 34q82 0 148.5 -26.5t114 -77t74.5 -123.5t30 -165h-167
q-6 120 -57.5 180t-142.5 60q-70 0 -115 -25t-71.5 -70.5t-37 -109.5t-10.5 -143v-122q0 -80 10 -144.5t36.5 -110t72 -70t116.5 -24.5zM463 1366l119 170h152v-10l-219 -274h-104l-216 274v10h148z" />
    <glyph glyph-name="Dcaron" unicode="&#x10e;" horiz-adv-x="1169" 
d="M157 0v1456h347q123 0 222 -38.5t169 -115t108 -190t38 -262.5v-246q0 -149 -38 -262t-109 -189t-174 -114.5t-233 -38.5h-330zM340 1298v-1141h147q195 0 284 113t89 334v249q0 230 -88.5 337.5t-267.5 107.5h-164zM533 1688l119 170h152v-10l-219 -274h-104l-216 274
v10h148z" />
    </font>
</defs>
</svg>
