<svg xmlns="http://www.w3.org/2000/svg">
<defs>
<font id="UTMHelvetIns" horiz-adv-x="1024" >
  <font-face 
    font-family="UTM HelvetIns"
    font-weight="400"
    font-stretch="normal"
    units-per-em="2048"
    panose-1="2 4 6 3 5 5 6 2 2 4"
    ascent="1638"
    descent="-410"
    x-height="1309"
    cap-height="1637"
    bbox="-84 -547 4942 2482"
    underline-thickness="109"
    underline-position="-143"
    unicode-range="U+0020-2026"
  />
<missing-glyph horiz-adv-x="5040" 
d="M3351 2045h10q37 -10 37 -52q0 -12 -32 -57h-28q0 24 28 54l2 10q-5 13 -10 15h-9q-8 0 -10 -19h-30q6 49 42 49zM2019 2016l29 -31q0 -16 -40 -30h-19l-59 12l-11 -12l-28 25q11 29 43 29h11l42 -11h2q10 0 30 18zM468 1980h142v-60h-94v-75h89v-59h-89v-129l-5 -5h-49
v323zM1155 1980h43l6 -5v-78h30v-52h-30v-188l-6 -5h-49v193h-25v52h25v78zM1621 1980h42l4 -5v-94h3q23 24 54 24h2q58 0 83 -71l2 -39v-143h-52v115q0 80 -42 80h-7q-43 0 -43 -86v-109h-51v323zM2200 1980h49l5 -5v-222q10 -51 45 -51q44 7 44 59v214l5 5h49v-216
q0 -85 -66 -112q-15 -8 -35 -8q-47 0 -82 55q-14 24 -14 57v224zM2435 1980h159v-60h-56v-268h-53v268h-55v55zM2621 1980h71q7 -4 83 -251h2l80 251h73v-328h-54v242h-2l-74 -242h-44q-4 0 -58 182l-19 60h-3v-242h-55v328zM3760 1980h52v-328h-45l-5 5v11l3 2l-3 14
q-29 -40 -78 -40q-67 0 -100 91l-5 39v3q0 94 92 125l23 3q35 0 63 -32h3v107zM2057 1928h36l4 -6v-49h-45v-221h-48v23q-23 -31 -59 -31q-89 14 -89 97v156h51v-104q0 -79 26 -86l18 -5h6q26 0 39 36l3 26v133h53v25zM3476 1928v-55h-31v-221h-47v25h-2q-15 -33 -57 -33
q-68 0 -86 78l-3 29v146h52v-120q0 -50 19 -68l21 -7h9q42 0 42 69v126h27q4 0 4 28l3 3h49zM758 1905q68 0 103 -77q9 -18 12 -54q0 -88 -90 -127l-32 -3q-63 0 -101 73q-12 22 -12 52v10q0 94 101 126h19zM1011 1905h3q74 0 83 -101v-152h-51v119q0 76 -42 76h-5
q-44 0 -44 -76v-119h-52v245h46v-21q30 29 62 29zM1466 1905h7q72 0 105 -89h-60q-16 31 -42 31h-17q-53 -14 -53 -61l-3 -15q12 -69 61 -69h9q22 0 47 27h40l2 3h3l2 -3l2 3l3 -3l2 3l2 -7q-33 -81 -110 -81q-76 0 -110 94l-4 36v3q0 85 77 120q15 8 37 8zM3141 1905h2

<glyph glyph-name=".notdef" horiz-adv-x="5040" 
d="M3351 2045h10q37 -10 37 -52q0 -12 -32 -57h-28q0 24 28 54l2 10q-5 13 -10 15h-9q-8 0 -10 -19h-30q6 49 42 49zM2019 2016l29 -31q0 -16 -40 -30h-19l-59 12l-11 -12l-28 25q11 29 43 29h11l42 -11h2q10 0 30 18zM468 1980h142v-60h-94v-75h89v-59h-89v-129l-5 -5h-49
v323zM1155 1980h43l6 -5v-78h30v-52h-30v-188l-6 -5h-49v193h-25v52h25v78zM1621 1980h42l4 -5v-94h3q23 24 54 24h2q58 0 83 -71l2 -39v-143h-52v115q0 80 -42 80h-7q-43 0 -43 -86v-109h-51v323zM2200 1980h49l5 -5v-222q10 -51 45 -51q44 7 44 59v214l5 5h49v-216
q0 -85 -66 -112q-15 -8 -35 -8q-47 0 -82 55q-14 24 -14 57v224zM2435 1980h159v-60h-56v-268h-53v268h-55v55zM2621 1980h71q7 -4 83 -251h2l80 251h73v-328h-54v242h-2l-74 -242h-44q-4 0 -58 182l-19 60h-3v-242h-55v328zM3760 1980h52v-328h-45l-5 5v11l3 2l-3 14
q-29 -40 -78 -40q-67 0 -100 91l-5 39v3q0 94 92 125l23 3q35 0 63 -32h3v107zM2057 1928h36l4 -6v-49h-45v-221h-48v23q-23 -31 -59 -31q-89 14 -89 97v156h51v-104q0 -79 26 -86l18 -5h6q26 0 39 36l3 26v133h53v25zM3476 1928v-55h-31v-221h-47v25h-2q-15 -33 -57 -33
q-68 0 -86 78l-3 29v146h52v-120q0 -50 19 -68l21 -7h9q42 0 42 69v126h27q4 0 4 28l3 3h49zM758 1905q68 0 103 -77q9 -18 12 -54q0 -88 -90 -127l-32 -3q-63 0 -101 73q-12 22 -12 52v10q0 94 101 126h19zM1011 1905h3q74 0 83 -101v-152h-51v119q0 76 -42 76h-5
q-44 0 -44 -76v-119h-52v245h46v-21q30 29 62 29zM1466 1905h7q72 0 105 -89h-60q-16 31 -42 31h-17q-53 -14 -53 -61l-3 -15q12 -69 61 -69h9q22 0 47 27h40l2 3h3l2 -3l2 3l3 -3l2 3l2 -7q-33 -81 -110 -81q-76 0 -110 94l-4 36v3q0 85 77 120q15 8 37 8zM3141 1905h2
q49 0 70 -60v-14h-52q0 16 -16 16h-4q-14 0 -19 -13v-13q0 -9 68 -35q30 -19 30 -59q0 -58 -61 -80l-23 -3q-76 12 -76 83h54q0 -20 27 -25h4q19 0 24 23q0 22 -68 44q-34 27 -34 59q0 66 74 77zM4203 1905q55 0 77 -63q7 -18 7 -65v-125h-52v112q0 83 -40 83h-11
q-33 0 -40 -54v-141h-52v5h-2l2 2v238h47v-21q25 29 64 29zM4432 1905h5q40 0 69 -40v18l-3 3l3 11h47v-208q0 -97 -85 -132l-33 -4h-7q-70 0 -104 80h59q24 -22 45 -23h13q22 0 43 22q15 13 22 52h-3q-32 -40 -73 -40q-57 0 -96 70q-10 18 -14 63q0 88 87 125zM3851 1897
h53v-136q6 -59 40 -59h7q46 0 46 93v102h51v-245h-47l-3 10h3l-3 3v5l3 2v3h-4q0 -23 -57 -31h-3q-59 0 -84 75l-2 85v93zM690 1771q10 -69 63 -69h7q59 14 59 65v15q-13 65 -59 65h-5q-58 0 -65 -76zM3630 1774q13 -72 61 -72h5q58 0 66 75q0 49 -51 70h-22q-37 0 -56 -57z
M4374 1774q8 -72 65 -72h5q59 12 59 72q0 61 -59 73h-14q-56 -16 -56 -62v-11zM3928 1620h52v-57h-52v57zM1054 1402q43 -11 43 -49v-4q0 -17 -32 -60h-28q0 25 31 57v7q0 12 -7 15h-12q-10 -4 -10 -19h-28v6q0 32 33 44zM3349 1339q92 0 138 -99h-60q-37 42 -80 42
q-55 0 -87 -68q-10 -22 -10 -47q0 -78 81 -110l18 -1q36 0 75 39h61q-44 -97 -138 -97q-93 0 -141 112q-10 31 -10 62q0 97 90 152q29 15 63 15zM3664 1339q57 0 103 -47q46 -51 46 -115v-20q0 -89 -91 -146q-33 -13 -63 -13q-89 0 -138 101q-13 33 -13 60v18q0 98 98 151
q29 11 58 11zM2261 1337h2l47 -11h3q11 0 26 11l18 -36q-18 -19 -35 -19h-3l-54 10l-20 -7l-20 36q18 16 36 16zM716 1334h19q118 0 129 -26q25 -26 25 -62q-10 -57 -30 -57v-6q47 -23 47 -66v-18q0 -63 -69 -88l-54 -5h-67v328zM2550 1334h53v-217q6 -61 45 -61q29 0 44 39
l3 30v203l4 6h45l5 -6v-171q0 -118 -40 -133q-24 -26 -64 -26q-55 0 -91 76l-4 54v206zM2805 1334h59q4 0 122 -237h4v237h50l4 -6v-322h-58q-29 48 -125 238h-3v-238h-53v328zM3101 1334h54v-328h-54v328zM3859 1334h8q155 0 174 -40q23 -11 47 -75l4 -36v-11l3 -2
q0 -94 -82 -149q-35 -15 -99 -15h-55v328zM4141 1334h153v-60h-103v-75h101v-57h-101v-74l4 -5h99v-57h-157v322zM3563 1175v-10q0 -76 79 -108l19 -1q68 0 96 86l3 20v15q0 61 -60 94q-12 8 -39 11q-66 0 -96 -83zM770 1274v-67h9q54 0 54 28l3 14q-11 25 -29 25h-37z
M3912 1274v-206l2 -3v-2q104 0 122 76l2 15v29q0 34 -32 68q-25 23 -78 23h-16zM1041 1259h5q38 0 71 -40v32h49v-245h-49v32q-36 -40 -80 -40q-75 0 -101 97l-5 36q0 89 85 125zM1314 1259h3q74 0 83 -102v-151h-51v128q0 67 -42 67h-10q-34 0 -39 -62v-133h-52v245h47v-21
q28 29 61 29zM1543 1259h5q45 0 71 -40v32h47v-219q0 -95 -104 -126h-16q-74 0 -108 82h59q26 -25 44 -25h14q52 0 64 77q-33 -42 -76 -42q-60 0 -101 81l-7 44v16q0 79 85 117zM1912 1259h2q43 0 61 -37h2q32 37 69 37h4q57 0 79 -55q8 -25 8 -45v-153h-52v138q0 44 -23 55
l-12 2h-15q-32 0 -36 -65v-130h-52v136q0 59 -43 59h-8q-32 0 -36 -57v-138h-54v245h50v-21h2q6 24 54 29zM2282 1259q47 0 75 -42v34h47v-245h-47v32q-36 -40 -78 -40q-74 0 -102 92l-6 41q0 90 85 125zM985 1117q0 -48 61 -61h4q45 0 62 46l3 15v22q-12 62 -57 62h-14
q-41 0 -59 -57v-27zM1487 1128q0 -48 43 -68l18 -4h5q47 0 63 57v23q-11 65 -58 65h-12q-50 0 -59 -73zM2225 1131v-14q15 -61 57 -61h14q58 12 58 64v11q0 45 -37 65l-18 5h-10q-64 -8 -64 -70zM770 1150v-82q0 -5 7 -5q77 0 77 45q0 34 -47 42h-37zM2966 753l24 -28
l-51 -55q-18 12 -27 26zM1524 727l85 -54q0 -15 -21 -42l-87 54q18 41 23 42zM2850 693h38l55 -60h-54l-21 26l-23 -26h-54q54 60 59 60zM3422 693h40l56 -60h-54l-24 26h-1q0 -5 -19 -26h-54zM622 685h52q8 -4 47 -137l34 -110q9 8 34 100l48 147h54v-2l-112 -326h-44z
M1159 685h51v-54h-51v54zM1354 685h46l6 -5v-323h-52v328zM2317 685h45l4 -5v-78h31v-52h-31v-193h-53v193h-26v52h26v78zM2425 685h52v-98h2q23 23 54 23h3q57 0 81 -71l3 -38v-144h-52v115q0 81 -39 81h-10q-42 0 -42 -87v-109h-52v328zM2664 685h52v-54h-52v54zM3028 685
h44l6 -5v-78h29v-52h-29v-193h-54v193h-27v52h27v78zM3234 685h52v-328h-52v328zM3957 685h52v-328h-52v328zM4316 685h51v-54h-51v54zM1555 610h5q83 0 110 -102l3 -23v-11q0 -83 -85 -120l-35 -5q-76 0 -111 97l-4 32q0 97 93 130zM1811 610h4q53 0 78 -60q7 -25 7 -81
v-112h-54v146q-7 50 -37 50h-10q-38 0 -42 -57v-139h-54v245h49v-21q26 29 59 29zM2046 610h4q45 0 63 -39h3v31h49v-206q0 -102 -89 -135l-28 -3h-5q-73 0 -106 81h52l37 -20l15 -3h14q50 0 61 72q-33 -39 -73 -39q-62 0 -98 76q-11 23 -12 60q0 85 86 123zM2866 610h2
q82 0 111 -104l2 -25l-2 -27h-172q15 -45 45 -45l14 -3q29 0 49 22h57v-3q-35 -76 -108 -76q-77 0 -111 97l-1 28v8q0 49 32 89q34 39 82 39zM3429 610h5q41 0 70 -39h2v31h47v-245h-47v31h-2q-35 -39 -77 -39q-71 0 -101 89l-5 36v14q0 86 84 120zM3711 610h7
q88 0 107 -128l-2 -1v-15q0 -65 -66 -106q-21 -11 -46 -11q-34 0 -64 32v-99l-5 -5h-49v325h49v-28q31 36 69 36zM4151 610q44 0 75 -39v31h49v-245h-49v31q-35 -39 -77 -39q-92 0 -108 132q0 84 73 121q15 8 37 8zM922 602h50v-136q3 -60 42 -60h5q44 0 44 87v109h52v-245
h-47v24h-5q0 -23 -56 -32h-3q-55 0 -82 68q-4 35 -4 99v81zM1159 602h51v-245h-51v245zM2664 602h52v-245h-52v245zM4316 602h51v-245h-51v245zM1492 488v-16q13 -66 59 -66h4q59 0 66 76q-13 71 -59 71h-11q-59 -16 -59 -65zM1987 472q15 -66 59 -66h11q48 0 59 75v1
q-13 71 -59 71h-14q-39 0 -56 -57v-24zM2805 506h122v2q-16 45 -59 45h-7q-35 0 -56 -47zM3373 474q13 -68 61 -68h5q52 0 65 63v12q-10 72 -57 72h-16q-56 -14 -56 -63zM3642 478q12 -72 61 -72h3q50 0 65 60v22q0 43 -49 65h-22q-47 0 -58 -72v-3zM4095 472q10 -66 66 -66
q43 0 61 48l2 15v16q0 54 -52 68h-18q-42 0 -59 -60v-21zM3416 321h51v-52h-51v52zM4137 321h51v-52h-51v52zM2733 133h4q35 0 43 -50v-2q0 -16 -24 -41l-10 -17h-28q0 25 28 56l3 2v2q-3 19 -9 19h-10q-8 0 -9 -19h-30q6 50 42 50zM1546 116l52 -60l-26 -19l-52 52zM352 79
h4q75 -48 85 -60l-20 -37q-88 49 -88 58zM3490 79l86 -58l-18 -39q-10 0 -91 55q15 36 23 42zM4578 76l19 -42l-91 -52l-20 39l92 58v-3zM1204 53h51v-19l5 -5h14v-36h-14l-5 -5v-279h-46v31q-34 -40 -81 -40q-72 0 -102 105l-3 26q0 102 101 131h14q33 0 66 -33v59l-6 5
h-43v36h49v24zM1480 45h40l56 -61h-53l-23 27l-23 -27h-53zM2641 45h33q12 0 63 -61h-54l-23 27q-19 -21 -19 -27h-58v4zM49 37h160v-60h-56v-268h-50l-4 5v245l2 3v2l-2 2l2 3l-2 2l2 3l-2 3h-54v54zM699 37h47v-73l2 -2l-2 -3v-3l2 -2l-2 -3v-3l2 -2v-2l-2 -3l2 -3h3
q17 24 51 24h3q53 0 77 -58q7 -17 7 -42v-153h-52v127q0 68 -40 68h-8q-43 0 -43 -86v-109h-52v322zM1297 37h47l5 -6v-49h-52v55zM1987 37h52v-198l70 115h62l-78 -118l90 -125v-2h-70q-10 22 -74 115v-115h-52v328zM2271 37v-99q24 24 53 24q57 0 80 -56q10 -19 10 -77
v-120h-54v133q0 62 -41 62h-11q-31 0 -37 -55v-140h-53v314l-1 3v3l1 2l-1 3l1 3h53zM2458 37h51v-55h-51v55zM3148 37h51v-108q27 33 68 33h3q75 0 105 -94l5 -37q0 -75 -64 -120q-30 -11 -49 -11q-41 0 -72 40v-31h-47v328zM4275 37h52v-99h2q23 24 54 24h3q60 0 82 -74
l2 -41v-138h-52v111q0 82 -32 82l-10 2h-12q-37 0 -37 -80v-115h-52v328zM329 -38h3v-58h-5q-42 0 -42 -57v-138h-53v245h47v-21q18 29 50 29zM564 -38q71 0 86 -87v-166h-51v136q-6 59 -41 59h-6q-45 0 -45 -84v-111h-52v245h50v-21q25 29 59 29zM1504 -38q72 0 105 -94
l5 -39q-2 -24 -7 -24h-169q17 -47 62 -47q24 0 48 21h57q-33 -79 -108 -79q-82 0 -113 105v37q0 81 89 117zM2657 -38h5q77 0 107 -97l3 -26v-21l-3 -13h-170q18 -47 53 -47h12q21 0 42 21h59q-34 -79 -105 -79q-84 0 -115 102l-2 29q0 93 91 128zM2915 -38h4q54 0 78 -60
q7 -25 7 -82v-111h-54v138q0 48 -35 57h-11q-38 0 -43 -57v-138h-54v245h50v-21q25 29 58 29zM3508 -38h6q40 0 70 -40h2v32h47v-245h-47v31h-2q-34 -40 -78 -40q-71 0 -101 90l-4 37v12q0 82 77 117q11 6 30 6zM3781 -38h4q62 0 82 -78l3 -84v-91h-54v138q0 48 -38 57h-9
q-38 0 -42 -52v-143h-54v245h49v-21q26 29 59 29zM4133 -38h1q74 0 104 -93l4 -40q0 -88 -84 -126l-25 -3q-41 0 -68 34v-106h-52v326h47v-29q30 37 73 37zM4714 -38h5q34 0 63 -37q27 37 69 37h6q56 0 79 -66l6 -51v-136h-52v122q0 73 -39 73h-7q-35 0 -41 -50v-140l-5 -5
h-48v140q0 42 -31 55h-17q-40 0 -40 -77v-118h-51v245h47v-21q22 29 56 29zM359 -46h49l5 -6v-234l-5 -5h-49v245zM1297 -46h52v-245h-52v245zM1649 -46h52v-136q4 -60 43 -60h4q44 0 44 81v115h52v-245h-47v24h-5q-12 -33 -59 -33q-52 0 -79 63q-5 12 -5 34v157zM2458 -46
h51v-245h-51v245zM4515 -46h51v-245h-51v245zM1077 -169q0 -53 51 -73h12q54 0 66 66v10q0 53 -54 70h-17q-38 0 -58 -57v-16zM1438 -143h122q-18 47 -53 47h-7q-43 0 -62 -44v-3zM2599 -143h122q-21 47 -54 47h-7q-46 0 -61 -47zM3196 -158v-11q10 -73 61 -73h5q64 8 64 71
v5q0 45 -38 65l-18 5h-14q-60 -14 -60 -62zM3452 -173q14 -69 62 -69h11q41 0 59 60v13q-8 73 -56 73h-17q-47 0 -59 -73v-4zM4062 -158v-22q0 -47 59 -62h9q50 0 61 76q-13 70 -58 70h-15q-56 -17 -56 -62z" />
    <glyph glyph-name=".null" horiz-adv-x="0" 
 />
    <glyph glyph-name="nonmarkingreturn" horiz-adv-x="571" 
 />
    <glyph glyph-name="space" unicode=" " horiz-adv-x="508" 
 />
    <glyph glyph-name="exclam" unicode="!" horiz-adv-x="684" 
d="M172 1637h340v-639l-78 -525h-184l-78 525v639zM512 0h-340v377h340v-377z" />
    <glyph glyph-name="quotedbl" unicode="&#x22;" 
d="M577 1059v578h291v-578h-291zM155 1059v578h291v-578h-291z" />
    <glyph glyph-name="numbersign" unicode="#" 
d="M60 957v241h182l49 412h236l-50 -412h166l49 412h234l-51 -412h151v-241h-182l-31 -269h152v-241h-182l-52 -447h-231l53 447h-168l-53 -447h-235l53 447h-152v241h182l31 269h-151zM615 957h-166l-35 -269h168z" />
    <glyph glyph-name="dollar" unicode="$" 
d="M59 359v184h340v-129q0 -86 16 -123q15 -39 91 -39q43 0 71 37q25 37 25 117q0 98 -141 231l-263 234q-141 159 -141 350q0 182 100 293q99 108 269 123v147h168v-147q184 0 272 -115q80 -105 80 -305v-105h-340v109q0 57 -18 94q-25 43 -86 43q-35 0 -66 -37
q-27 -37 -27 -82q0 -86 144 -209q223 -190 268 -243q145 -174 145 -379q0 -367 -372 -434v-148h-168v148q-152 0 -256 92q-111 104 -111 293z" />
    <glyph glyph-name="percent" unicode="%" horiz-adv-x="1820" 
d="M1286 586v-363q0 -36 10 -52.5t49 -16.5q31 0 43 18q13 19 13 51v363q0 35 -11 53q-10 17 -45 17q-37 0 -49 -19zM190 1024v363q0 133 76 192q76 58 213 58t205 -54q80 -61 80 -196v-363q0 -129 -76 -192q-76 -58 -209 -58q-143 0 -209 54q-80 61 -80 196zM420 1387v-363
q0 -37 10 -53t49 -16q31 0 43 18t12 51v363q0 35 -10 53q-10 16 -45 16q-37 0 -49 -18zM598 -53l434 1716h190l-428 -1716h-196zM1057 223v363q0 133 75 192q76 58 213 58q138 0 205 -53q80 -62 80 -197v-363q0 -129 -76 -192q-76 -57 -209 -57q-143 0 -209 53
q-79 61 -79 196z" />
    <glyph glyph-name="ampersand" unicode="&#x26;" horiz-adv-x="1366" 
d="M983 910h289q0 -80 -12 -144q-15 -63 -45 -151q-49 -156 -142 -267l193 -348h-363l-51 101q-57 -54 -153 -95q-99 -32 -183 -32q-258 0 -362 198q-60 115 -60 291q0 119 76 252q86 154 226 223q-72 117 -93 164l-32 100q-13 50 -13 93q0 153 105 247q104 95 270 95
q168 0 264 -72q111 -80 111 -244q0 -117 -64 -227q-65 -113 -174 -193l144 -258l37 101q32 125 32 166zM725 328l-192 360l-47 -57l-19 -25q-20 -34 -33 -73q-12 -41 -12 -88q0 -70 43 -125q41 -56 111 -56l41 2l32 15l39 20zM647 1395q-86 0 -86 -84q0 -43 29 -92l45 -78
q43 41 61.5 67.5t24.5 47.5l8 47q0 45 -18 69q-21 23 -64 23z" />
    <glyph glyph-name="quotesingle" unicode="'" horiz-adv-x="569" 
d="M139 1059v578h291v-578h-291z" />
    <glyph glyph-name="parenleft" unicode="(" horiz-adv-x="682" 
d="M602 1637v-181q-70 0 -109 -45q-32 -45 -32 -198v-1039q0 -106 16 -145q31 -74 125 -74v-180q-203 31 -326 147q-131 125 -131 326v891q0 215 123 356.5t334 141.5z" />
    <glyph glyph-name="parenright" unicode=")" horiz-adv-x="682" 
d="M80 -225v180q92 0 123 74q18 43 18 145v1039q0 129 -16 168q-29 75 -125 75v181q205 0 336 -144q121 -137 121 -354v-891q0 -201 -131 -326q-117 -110 -326 -147z" />
    <glyph glyph-name="asterisk" unicode="*" horiz-adv-x="796" 
d="M635 1059l-162 115l17 -213h-168l6 213l-162 -119l-86 131l186 113l-182 114l76 140l168 -123l-12 207h172l-15 -205l172 119l72 -138l-190 -112l190 -113z" />
    <glyph glyph-name="plus" unicode="+" horiz-adv-x="1229" 
d="M469 811v373h291v-373h372v-291h-372v-372h-291v372h-373v291h373z" />
    <glyph glyph-name="comma" unicode="," horiz-adv-x="512" 
d="M86 0v377h340v-352q0 -68 -53 -158q-55 -92 -96 -100h-191q54 45 103 108q37 45 65 125h-168z" />
    <glyph glyph-name="hyphen" unicode="-" horiz-adv-x="682" 
d="M71 541v303h539v-303h-539z" />
    <glyph glyph-name="hyphen" unicode="&#x2010;" horiz-adv-x="682" 
d="M71 541v303h539v-303h-539z" />
    <glyph glyph-name="period" unicode="." horiz-adv-x="512" 
d="M426 0h-340v377h340v-377z" />
    <glyph glyph-name="slash" unicode="/" horiz-adv-x="569" 
d="M-84 -26l447 1689h291l-447 -1689h-291z" />
    <glyph glyph-name="zero" unicode="0" 
d="M61 383v844q0 188 117 299t334 111q215 0 334 -109q116 -111 116 -301v-844q0 -190 -118 -299q-119 -110 -332 -110q-217 0 -334 110q-117 109 -117 299zM426 1254v-897q0 -60 22.5 -82.5t63.5 -22.5q35 0 59 19q27 26 27 86v897q0 59 -22.5 81.5t-63.5 22.5
q-43 0 -64 -20q-22 -23 -22 -84z" />
    <glyph glyph-name="one" unicode="1" 
d="M104 1209v229q101 0 187 41q84 41 116 131h308v-1610h-353v1209h-258z" />
    <glyph glyph-name="two" unicode="2" 
d="M76 1045v127q0 235 111 350q110 115 352 115q211 0 328 -105q114 -106 114 -323q0 -193 -96 -332q-25 -37 -76 -92q-53 -58 -137 -136q-152 -141 -217 -256l-21 -45l-16 -45h551v-303h-926v101q0 295 148 503q4 9 276 287q150 156 150 316q0 92 -25 122q-27 29 -76 29
q-61 0 -80 -37q-20 -39 -20 -114v-162h-340z" />
    <glyph glyph-name="three" unicode="3" 
d="M49 389v154h353v-168q0 -55 22 -88q23 -35 76 -35q49 0 74 35q24 33 24 88v115q0 135 -43 188q-16 19 -65 33q-51 12 -123 12v266h63q60 0 109 31q47 31 47 94v133q0 33 -2 47.5t-16 38.5q-15 25 -68 25q-92 0 -92 -119v-102h-350q0 252 88 366q102 134 360 134
q213 0 322 -88q123 -99 123 -320q0 -135 -31 -209q-41 -96 -150 -147q107 -37 158 -146q35 -88 35 -231q0 -264 -92 -387q-105 -135 -365 -135q-215 0 -336 102t-121 313z" />
    <glyph glyph-name="four" unicode="4" 
d="M39 305v338q98 211 166 482q29 118 49 249q21 129 21 236h379q0 -117 -35 -242q-37 -125 -107 -288q-98 -242 -266 -484h264v221q37 52 68 105t61 121q60 125 86 243h137v-690h123v-291h-123v-305h-352v305h-471z" />
    <glyph glyph-name="five" unicode="5" 
d="M86 727v883h826v-303h-523v-242q35 27 98.5 45.5t98.5 18.5q192 0 289 -109q88 -100 88 -285v-227q0 -266 -96 -393q-109 -141 -361 -141q-215 0 -336 102t-121 313v142h353v-156q0 -55 22 -88q23 -35 76 -35q49 0 74 35q24 33 24 88v352q0 29 -4 43q0 21 -20 51
q-21 29 -74 29t-76 -33q-22 -34 -22 -90h-316z" />
    <glyph glyph-name="six" unicode="6" 
d="M61 383v844q0 188 117 299t334 111q203 0 315 -99q111 -98 111 -315h-328q0 67 -22 102q-23 33 -76 33t-76 -35t-23 -100v-182l5 -4q43 55 86 73q41 19 118 19q185 0 271 -123q69 -111 69 -305v-318q0 -190 -118 -299q-119 -110 -332 -110q-217 0 -334 110
q-117 109 -117 299zM426 746v-389q0 -60 22.5 -82.5t63.5 -22.5q35 0 59 19q27 26 27 86v389q0 59 -22.5 81.5t-63.5 22.5q-43 0 -64 -20q-22 -23 -22 -84z" />
    <glyph glyph-name="seven" unicode="7" 
d="M24 1307v303h938v-272l-45 -78l-43 -80q-57 -107 -104 -229q-23 -64 -53 -156q-15 -43 -31 -100q-78 -289 -78 -515l-12 -180h-389l6 101l8 71q12 140 41 250q27 129 72 256q69 215 200 477l76 152h-586z" />
    <glyph glyph-name="eight" unicode="8" 
d="M61 383v135q0 131 23 189q37 106 162 158q-91 36 -136 114q-37 62 -37 137v111q0 80 13 143q12 62 41 105q100 162 385 162q282 0 383 -162q55 -86 55 -248v-111q0 -65 -37 -133q-43 -75 -141 -118q115 -44 162 -136q28 -69 28 -211v-135q0 -190 -118 -299
q-119 -110 -332 -110q-217 0 -334 110q-117 109 -117 299zM426 617v-260q0 -60 22.5 -82.5t63.5 -22.5q35 0 59 19q27 26 27 86v260q0 59 -22.5 81.5t-63.5 22.5q-43 0 -64 -20q-22 -23 -22 -84zM426 1254v-150q0 -59 22.5 -81.5t63.5 -22.5q35 0 59 18q27 27 27 86v150
q0 59 -22.5 81.5t-63.5 22.5q-43 0 -64 -20q-22 -23 -22 -84z" />
    <glyph glyph-name="nine" unicode="9" 
d="M962 1227v-844q0 -190 -118 -299q-119 -110 -332 -110q-203 0 -312 94q-114 102 -114 319h327q0 -67 23 -100q23 -35 76 -35t76 35q22 35 22 100v183l-4 4q-39 -52 -86 -76l-49 -12l-70 -4q-184 0 -270 122q-70 111 -70 306v317q0 188 117 299t334 111q215 0 334 -109
q116 -111 116 -301zM598 865v389q0 59 -22.5 81.5t-63.5 22.5t-64 -22q-22 -19 -22 -82v-389q0 -60 22.5 -82.5t63.5 -22.5q43 0 65 23q21 20 21 82z" />
    <glyph glyph-name="colon" unicode=":" horiz-adv-x="512" 
d="M86 813v377h340v-377h-340zM86 0v377h340v-377h-340z" />
    <glyph glyph-name="semicolon" unicode=";" horiz-adv-x="512" 
d="M86 0v377h340v-352q0 -68 -53 -158q-55 -92 -96 -100h-191q54 45 103 108q37 45 65 125h-168zM86 813v377h340v-377h-340z" />
    <glyph glyph-name="less" unicode="&#x3c;" horiz-adv-x="1229" 
d="M1132 131l-1036 389v291l1036 389v-315l-626 -217l626 -221v-316z" />
    <glyph glyph-name="equal" unicode="=" horiz-adv-x="1229" 
d="M1132 1065v-291h-1036v291h1036zM1132 557v-291h-1036v291h1036z" />
    <glyph glyph-name="greater" unicode="&#x3e;" horiz-adv-x="1229" 
d="M96 131v316l627 217l-627 221v315l1036 -389v-291z" />
    <glyph glyph-name="question" unicode="?" 
d="M250 0v377h340v-377h-340zM555 473h-266v92q0 140 86 275l160 201q88 112 88 213q0 77 -21 116q-26 52 -94 52q-59 0 -88 -54q-27 -59 -27 -137v-113h-315v138q0 174 121 290q119 117 323 117q213 0 328 -94q125 -102 125 -301q0 -152 -108 -287l-203 -219
q-109 -137 -109 -289z" />
    <glyph glyph-name="at" unicode="@" horiz-adv-x="1802" 
d="M868 574q98 0 168 73q70 72 70 170q0 84 -49 138q-52 53 -138 53q-92 0 -159 -76q-64 -76 -64 -166q0 -78 43 -135t129 -57zM1165 1116l21 109h213l-99 -541l-10 -43l-4 -32q0 -48 55 -48q72 0 119 66q66 90 66 278q0 265 -162 410q-164 143 -430 143q-279 0 -449 -180
q-172 -180 -172 -463q0 -288 182 -462q183 -175 476 -175q133 0 239 37q105 37 189 101h223q-119 -162 -289 -252q-172 -90 -381 -90q-371 0 -620 235q-261 242 -261 606q0 357 252 602q252 246 617 246q311 0 545 -184q245 -197 245 -502q0 -338 -229 -524
q-168 -133 -332 -133q-69 0 -104 30q-37 29 -37 82l-45 -45l-53 -39q-54 -28 -125 -28q-148 0 -260 123q-115 122 -115 286q0 207 129 365q65 78 145 117t183 39q178 0 278 -134z" />
    <glyph glyph-name="A" unicode="A" horiz-adv-x="1138" 
d="M14 0l303 1637h500l307 -1637h-395l-35 291h-264l-39 -291h-377zM469 582h188l-88 801z" />
    <glyph glyph-name="B" unicode="B" horiz-adv-x="1138" 
d="M84 0v1637h522q213 0 312 -86q96 -88 96 -299q0 -158 -35 -234q-43 -102 -172 -151q133 -25 190.5 -125.5t57.5 -255.5q0 -220 -92 -346q-105 -140 -344 -140h-535zM461 723v-444h78q84 0 113 43q26 47 26 180q0 107 -20 154q-29 67 -111 67h-86zM461 1358v-369h70
q80 0 110 56q21 45 21 135q0 92 -24.5 135t-92.5 43h-84z" />
    <glyph glyph-name="C" unicode="C" horiz-adv-x="1138" 
d="M84 447v743q0 232 137 356q129 117 349 117q217 0 352 -121q133 -120 133 -352v-151h-377v184q0 59 -12 94q-25 55 -96 55q-68 0 -95 -53q-14 -43 -14 -96v-809q0 -74 25 -115q24 -35 84 -35q67 0 94 58q14 43 14 92v240h377v-207q0 -217 -131 -344q-131 -129 -354 -129
q-222 0 -353 127q-133 127 -133 346z" />
    <glyph glyph-name="D" unicode="D" horiz-adv-x="1138" 
d="M461 1358v-1079h59q158 0 158 139v801q0 139 -158 139h-59zM84 0v1637h561q228 0 326 -125q84 -107 84 -314v-778q0 -205 -129 -321q-111 -99 -281 -99h-561z" />
    <glyph glyph-name="E" unicode="E" 
d="M84 0v1637h838v-316h-461v-325h404v-316h-404v-364h479v-316h-856z" />
    <glyph glyph-name="F" unicode="F" horiz-adv-x="909" 
d="M84 0v1637h787v-316h-410v-325h367v-316h-367v-680h-377z" />
    <glyph glyph-name="G" unicode="G" horiz-adv-x="1138" 
d="M84 447v743q0 232 137 356q129 117 349 117q217 0 338 -84q147 -102 147 -317v-182h-358v163q0 129 -119 129q-60 0 -96 -55q-21 -45 -21 -94v-809q0 -74 25 -115q24 -35 84 -35q120 0 120 123v211h-133v303h498v-901h-330v133q-104 -159 -295 -159q-182 0 -274 143
q-72 119 -72 330z" />
    <glyph glyph-name="H" unicode="H" horiz-adv-x="1138" 
d="M84 0v1637h377v-613h217v613h377v-1637h-377v697h-217v-697h-377z" />
    <glyph glyph-name="I" unicode="I" horiz-adv-x="569" 
d="M96 0v1637h377v-1637h-377z" />
    <glyph glyph-name="J" unicode="J" 
d="M940 1637v-1229q0 -221 -112.5 -327.5t-341.5 -106.5q-187 0 -289 75q-148 105 -148 359v239h365v-278q0 -43 12 -78q15 -27 60 -27q28 0 52.5 25t24.5 82v1266h377z" />
    <glyph glyph-name="K" unicode="K" horiz-adv-x="1138" 
d="M84 0v1637h365v-670l256 670h399l-313 -678l315 -959h-401l-168 586l-88 -135v-451h-365z" />
    <glyph glyph-name="L" unicode="L" horiz-adv-x="909" 
d="M84 0v1637h377v-1321h410v-316h-787z" />
    <glyph glyph-name="M" unicode="M" horiz-adv-x="1593" 
d="M94 0v1637h594l107 -811l110 811h594v-1637h-364v1272l-215 -1272h-246l-211 1272l-4 -1272h-365z" />
    <glyph glyph-name="N" unicode="N" horiz-adv-x="1251" 
d="M84 0v1637h412l303 -965l4 965h365v-1637h-410l-305 1012l-4 -1012h-365z" />
    <glyph glyph-name="O" unicode="O" horiz-adv-x="1138" 
d="M461 1223v-809q0 -74 25 -115q24 -35 84 -35q67 0 94 58q14 43 14 92v809q0 59 -12 94q-25 55 -96 55q-68 0 -95 -53q-14 -43 -14 -96zM84 447v743q0 232 137 356q129 117 349 117q217 0 352 -121q133 -120 133 -352v-743q0 -217 -131 -344q-131 -129 -354 -129
q-222 0 -353 127q-133 127 -133 346z" />
    <glyph glyph-name="P" unicode="P" horiz-adv-x="1138" 
d="M461 1346v-406h94q82 0 113 43q27 49 27 164q0 135 -48 174q-30 25 -143 25h-43zM84 0v1637h404q325 0 446 -88q137 -103 137 -410q0 -84 -2 -115q-4 -33 -16 -94q-12 -63 -53 -125q-97 -156 -326 -156h-213v-649h-377z" />
    <glyph glyph-name="Q" unicode="Q" horiz-adv-x="1138" 
d="M461 1223v-809q0 -74 25 -115q24 -35 84 -35q67 0 94 58q14 43 14 92v809q0 59 -12 94q-25 55 -96 55q-68 0 -95 -53q-14 -43 -14 -96zM84 447v743q0 232 137 356q129 117 349 117q217 0 352 -121q133 -120 133 -352v-743q0 -273 -213 -406l145 -235l-305 -31l-55 102
l-55 97q-115 0 -203 30q-88 31 -156 97q-129 127 -129 346z" />
    <glyph glyph-name="R" unicode="R" horiz-adv-x="1138" 
d="M84 0v1637h498q252 0 364 -88q113 -89 113 -308q0 -157 -37 -237q-49 -99 -190 -142q102 -18 159 -92q60 -69 60 -172v-289v-116v-45q0 -23 4 -47q0 -60 35 -101h-373q-18 21 -33 97q-8 65 -8 122q-2 58 -2 90v263q0 67 -33 102q-32 33 -110 33h-70v-707h-377zM461 1358
v-373h92q82 0 113 56l12 49l4 88q0 96 -18 133q-29 47 -129 47h-74z" />
    <glyph glyph-name="S" unicode="S" horiz-adv-x="1138" 
d="M69 555h365v-121q0 -81 22 -118q33 -52 105 -52q59 0 96 39q35 37 35 88q0 111 -137 228l-162 121q-178 147 -209 184q-43 53 -72 127q-22 72 -22 153q0 230 125 345q123 114 356 114q238 0 354 -108q117 -109 117 -303v-148h-352v88q0 74 -19 121q-28 59 -100 59
q-59 0 -94 -30q-35 -33 -35 -92q0 -78 146 -197l167 -129q224 -199 252 -250q62 -111 62 -283q0 -151 -109 -268q-139 -149 -403 -149q-252 0 -383 139q-105 110 -105 266v176z" />
    <glyph glyph-name="T" unicode="T" horiz-adv-x="909" 
d="M22 1321v316h865v-316h-244v-1321h-377v1321h-244z" />
    <glyph glyph-name="U" unicode="U" horiz-adv-x="1138" 
d="M84 447v1190h377v-1194q0 -86 16 -125q15 -41 93 -41q53 0 82 32q26 31 26 134v1194h377v-1190q0 -217 -131 -344q-131 -129 -354 -129q-222 0 -353 127q-133 127 -133 346z" />
    <glyph glyph-name="V" unicode="V" 
d="M264 0l-250 1637h385l103 -1164l129 1164h378l-278 -1637h-467z" />
    <glyph glyph-name="W" unicode="W" horiz-adv-x="1706" 
d="M309 0l-279 1637h388l133 -1164l125 1164h366l115 -1164l139 1164h379l-287 -1637h-420l-110 1008l-129 -1008h-420z" />
    <glyph glyph-name="X" unicode="X" horiz-adv-x="1138" 
d="M20 0l318 883l-299 754h405l129 -465l135 465h392l-302 -766l320 -871h-395l-160 529l-152 -529h-391z" />
    <glyph glyph-name="Y" unicode="Y" 
d="M323 647l-307 990h389l105 -553l114 553h383l-307 -963v-674h-377v647z" />
    <glyph glyph-name="Z" unicode="Z" 
d="M60 1321v316h927v-306l-534 -1015h534v-316h-950v305l531 1016h-508z" />
    <glyph glyph-name="bracketleft" unicode="[" horiz-adv-x="682" 
d="M159 -225v1862h459v-205h-143v-1452h143v-205h-459z" />
    <glyph glyph-name="backslash" unicode="\" horiz-adv-x="569" 
d="M207 1663l447 -1689h-291l-447 1689h291z" />
    <glyph glyph-name="bracketright" unicode="]" horiz-adv-x="682" 
d="M522 -225h-459v205h144v1452h-144v205h459v-1862z" />
    <glyph glyph-name="asciicircum" unicode="^" horiz-adv-x="1229" 
d="M422 862h-326l332 748h373l331 -748h-327l-191 488z" />
    <glyph glyph-name="underscore" unicode="_" 
d="M1024 -256h-1024v103h1024v-103z" />
    <glyph glyph-name="grave" unicode="`" horiz-adv-x="569" 
d="M6 1704h324l90 -278h-190z" />
    <glyph glyph-name="a" unicode="a" 
d="M944 926v-926h-323v101q-92 -127 -254 -127q-174 0 -240 120q-47 89 -47 279q0 166 84 262q59 70 182 123q156 61 179 82q79 53 79 145q0 52 -16 80q-18 29 -66 29q-90 0 -90 -90v-107h-327v119q0 141 116 231q117 89 297 89q234 0 330 -97q96 -96 96 -313zM604 305v353
l-98 -72q-61 -47 -61 -117v-174q0 -104 77 -104q37 0 62 30q20 37 20 84z" />
    <glyph glyph-name="b" unicode="b" 
d="M80 0v1637h352v-447q43 78 103 113q57 33 153 33q123 0 191 -84q65 -86 65 -248v-639q0 -187 -67 -289q-70 -102 -195 -102q-86 0 -149 39q-56 38 -97 118l-4 -131h-352zM432 903v-450q0 -107 11 -139q18 -74 79 -74q31 0 52 20q18 19 18 66v663q0 37 -22 58
q-15 16 -48 22q-45 0 -69 -51q-21 -55 -21 -115z" />
    <glyph glyph-name="c" unicode="c" 
d="M80 346v617q0 145 84 244q111 129 348 129q228 0 348 -129q84 -97 84 -244v-139h-352v163q0 52 -8 70q-16 37 -72 37q-53 0 -65 -29q-15 -28 -15 -78v-665q0 -51 9 -70q16 -37 71 -37q49 0 70 35q10 27 10 72v235h352v-211q0 -145 -84 -243q-110 -129 -348 -129
q-227 0 -348 129q-84 96 -84 243z" />
    <glyph glyph-name="d" unicode="d" 
d="M944 1637v-1637h-352v131q-74 -157 -250 -157q-123 0 -192 106q-70 105 -70 285v639q0 153 66 243q63 89 190 89q174 0 252 -146l4 447h352zM592 453v450v31q0 21 -4 37q0 16 -12 45q-23 53 -74 53q-29 0 -49.5 -20.5t-20.5 -59.5v-663q0 -41 19 -66q18 -16 51 -20
q61 0 84 104q6 43 6 109z" />
    <glyph glyph-name="e" unicode="e" 
d="M80 346v617q0 145 84 244q111 129 348 129q228 0 348 -129q84 -97 84 -244v-361h-512v-280q0 -51 9 -70q16 -37 71 -37q49 0 70 35q10 27 10 72v164h352v-140q0 -145 -84 -243q-110 -129 -348 -129q-227 0 -348 129q-84 96 -84 243zM432 987v-143h160v143q0 52 -8 70
q-16 37 -72 37q-53 0 -65 -29q-15 -28 -15 -78z" />
    <glyph glyph-name="f" unicode="f" horiz-adv-x="569" 
d="M22 1041v254h84v94q0 157 90 211q62 37 217 37h134v-230h-35q-66 0 -66 -65v-47h101v-254h-88v-1041h-353v1041h-84z" />
    <glyph glyph-name="g" unicode="g" 
d="M944 1309v-1155q0 -215 -100 -303q-102 -88 -328 -88q-163 0 -272 55q-123 63 -145 223h340q0 -41 20 -61q18 -23 57 -23q78 0 78 90v232l-4 4q-55 -156 -242 -156q-116 0 -192 86t-76 226v485q0 188 47 280q66 132 234 132q90 0 147 -46q45 -32 90 -126l4 145h342z
M432 973v-496q0 -47 19 -71q18 -19 53 -25q39 0 66 45q22 51 22 142v340q0 83 -27 122q-26 39 -61 39q-31 0 -47 -16q-25 -25 -25 -80z" />
    <glyph glyph-name="h" unicode="h" 
d="M80 0v1637h352v-449q50 78 109 113t151 35q123 0 189 -78q63 -78 63 -203v-1055h-352v895q0 64 -8 80q-19 45 -72 45q-49 0 -69 -51q-11 -35 -11 -74v-895h-352z" />
    <glyph glyph-name="i" unicode="i" horiz-adv-x="569" 
d="M108 0v1309h353v-1309h-353zM108 1395v242h353v-242h-353z" />
    <glyph glyph-name="j" unicode="j" horiz-adv-x="569" 
d="M109 94v1215h352v-1174q0 -174 -47 -254q-64 -106 -234 -106h-172v246l33 -4q35 0 51 16q17 16 17 61zM109 1395v242h352v-242h-352z" />
    <glyph glyph-name="k" unicode="k" 
d="M641 0l-198 719l192 590h361l-205 -574l211 -735h-361zM80 0v1637h352v-1637h-352z" />
    <glyph glyph-name="l" unicode="l" horiz-adv-x="569" 
d="M108 0v1637h353v-1637h-353z" />
    <glyph glyph-name="m" unicode="m" horiz-adv-x="1593" 
d="M96 0v1309h340v-162q53 88 111 139q65 50 168 50q92 0 157 -43q66 -46 86 -146q53 94 105 139q61 50 176 50q125 0 192 -78q66 -78 66 -203v-1055h-352v879q0 65 -11 88q-18 53 -75 53q-56 0 -76 -59q-6 -19 -8 -33q-2 -16 -2 -49v-879h-353v879q0 65 -10 88
q-18 53 -76 53q-55 0 -75 -59q-7 -19 -9 -33q-2 -16 -2 -49v-879h-352z" />
    <glyph glyph-name="n" unicode="n" 
d="M80 0v1309h340v-145q47 75 111 126q71 46 161 46q123 0 189 -78q63 -78 63 -203v-1055h-352v895q0 64 -8 80q-19 45 -72 45q-49 0 -69 -51q-11 -35 -11 -74v-895h-352z" />
    <glyph glyph-name="o" unicode="o" 
d="M80 346v617q0 145 84 244q111 129 348 129q228 0 348 -129q84 -97 84 -244v-617q0 -145 -84 -243q-110 -129 -348 -129q-227 0 -348 129q-84 96 -84 243zM432 987v-665q0 -51 9 -70q16 -37 71 -37q49 0 70 35q10 27 10 72v665q0 52 -8 70q-16 37 -72 37q-53 0 -65 -29
q-15 -28 -15 -78z" />
    <glyph glyph-name="p" unicode="p" 
d="M80 -225v1534h352v-119q43 78 103 113q57 33 153 33q123 0 191 -84q65 -86 65 -248v-639q0 -187 -67 -289q-70 -102 -195 -102q-86 0 -149 39q-56 38 -97 118l-4 -356h-352zM432 903v-450q0 -107 11 -139q18 -74 79 -74q31 0 52 20q18 19 18 66v663q0 37 -22 58
q-15 16 -48 22q-45 0 -69 -51q-21 -55 -21 -115z" />
    <glyph glyph-name="q" unicode="q" 
d="M944 1309v-1534h-352v356q-74 -157 -250 -157q-123 0 -192 106q-70 105 -70 285v639q0 153 66 243q63 89 190 89q174 0 252 -146l4 119h352zM592 453v450v31q0 21 -4 37q0 16 -12 45q-23 53 -74 53q-29 0 -49.5 -20.5t-20.5 -59.5v-663q0 -41 19 -66q18 -16 51 -20
q61 0 84 104q6 43 6 109z" />
    <glyph glyph-name="r" unicode="r" horiz-adv-x="682" 
d="M80 0v1309h334v-232q61 138 88 175q61 84 168 84v-426h-82q-78 0 -121 -45q-35 -46 -35 -121v-744h-352z" />
    <glyph glyph-name="s" unicode="s" horiz-adv-x="909" 
d="M49 326v86h316v-80q0 -66 26 -94q19 -23 64 -23q78 0 78 97q0 73 -109 163l-127 95q-131 98 -188 196q-47 94 -47 193q0 178 106 278q105 99 287 99q192 0 293 -82q98 -84 98 -263v-69h-315v69q0 56 -19 80q-20 23 -57 23q-78 0 -78 -88q0 -58 80 -131l162 -127
q116 -86 166 -154q75 -100 75 -235q0 -193 -106 -289q-109 -96 -299 -96q-223 0 -320 94q-86 84 -86 258z" />
    <glyph glyph-name="t" unicode="t" horiz-adv-x="569" 
d="M106 209v832h-88v254h88v284h353v-284h88v-254h-88v-701l6 -74q6 -26 41 -26h45v-266h-170q-133 0 -195 41q-80 53 -80 194z" />
    <glyph glyph-name="u" unicode="u" 
d="M944 1309v-1309h-340v146q-53 -86 -114 -131q-64 -41 -158 -41q-123 0 -186 79q-66 80 -66 201v1055h352v-895q0 -64 9 -80q18 -45 71 -45q49 0 70 51q10 35 10 74v895h352z" />
    <glyph glyph-name="v" unicode="v" horiz-adv-x="909" 
d="M248 0l-238 1309h363l82 -838l92 838h352l-239 -1309h-412z" />
    <glyph glyph-name="w" unicode="w" horiz-adv-x="1478" 
d="M274 0l-256 1309h367l98 -920l98 920h330l80 -920l117 920h352l-252 -1309h-371l-100 871l-92 -871h-371z" />
    <glyph glyph-name="x" unicode="x" 
d="M24 0l295 678l-278 631h387l90 -346l96 346h375l-272 -631l282 -678h-385l-98 396l-113 -396h-379z" />
    <glyph glyph-name="y" unicode="y" horiz-adv-x="909" 
d="M109 -237v254h80q32 0 43 8q10 8 16 39l-6 55q0 35 -4 43l-12 49l-216 1098h361l88 -920l94 920h346l-229 -1198l-12 -66q-6 -39 -17 -57q-24 -88 -80 -143q-43 -43 -112 -62q-31 -8 -76 -14q-47 -6 -100 -6h-164z" />
    <glyph glyph-name="z" unicode="z" horiz-adv-x="909" 
d="M64 1030v279h794v-266l-428 -764h428v-279h-807v266l414 764h-401z" />
    <glyph glyph-name="braceleft" unicode="{" horiz-adv-x="682" 
d="M692 -225h-231q-123 0 -195 70q-81 82 -81 233v373q0 78 -74 121q-49 24 -121 24v217q76 0 119 23q76 39 76 123v372q0 154 79 230q78 76 197 76h231v-205h-83q-68 0 -93 -45q-16 -29 -16 -88v-391q0 -105 -84 -158q-66 -41 -152 -41q89 0 150 -37q86 -53 86 -182v-377
q0 -62 16 -86q25 -47 93 -47h83v-205z" />
    <glyph glyph-name="bar" unicode="|" horiz-adv-x="454" 
d="M82 -26v1689h291v-1689h-291z" />
    <glyph glyph-name="braceright" unicode="}" horiz-adv-x="682" 
d="M-10 -225v205h86q68 0 92 45q17 28 17 88v377q0 129 84 180q57 35 151 35q-49 0 -80 10q-33 10 -69 33q-86 55 -86 160v391q0 61 -17 86q-24 47 -92 47h-86v205h233q123 0 195 -70q82 -82 82 -236v-372q0 -78 74 -121q49 -25 118 -25v-217q-75 0 -118 -22
q-74 -37 -74 -123v-373q0 -156 -76 -229q-78 -74 -201 -74h-233z" />
    <glyph glyph-name="asciitilde" unicode="~" horiz-adv-x="1229" 
d="M1014 891l73 -266q-61 -86 -102 -121q-68 -55 -154 -55l-65 6q-21 4 -35 10q-16 4 -33 12l-76 39l-133 60l-49 12l-53 4q-53 0 -107 -49q-30 -31 -65 -102l-74 266q35 69 92 121q68 55 164 55q49 0 111 -18q14 -5 26 -7q11 -4 35 -16l55 -25l115 -53q59 -24 94 -24
q64 0 123 71z" />
    <glyph glyph-name="dieresis" unicode="&#xa8;" 
 />
    <glyph glyph-name="copyright" unicode="&#xa9;" horiz-adv-x="1772" 
 />
    <glyph glyph-name="registered" unicode="&#xae;" horiz-adv-x="1770" 
d="M840 1462q152 0 291 -60.5t243 -169.5q99 -102 152.5 -237.5t53.5 -276.5q0 -142 -53.5 -275.5t-156.5 -239.5q-105 -110 -243 -168.5t-294 -58.5q-153 0 -289 59.5t-242 169.5q-103 105 -155.5 237t-52.5 276q0 143 52.5 276.5t153.5 237.5q102 109 242.5 169.5
t297.5 60.5zM361 1193q-86 -84 -140.5 -209t-54.5 -266q0 -142 54.5 -265.5t154.5 -219.5q98 -91 214.5 -138t244.5 -47q130 0 248 46.5t215 136.5q100 97 155.5 222t55.5 265q0 139 -55.5 266t-151.5 220q-96 91 -215.5 138.5t-246.5 47.5q-130 0 -250.5 -47.5
t-227.5 -149.5zM658 809h250q108 1 111 98q-3 88 -109 92h-252v-190zM1017 662l223 -390h-205l-215 370h-162v-370h-179v894h390q313 0 313 -257q0 -194 -165 -247z" />
    <glyph glyph-name="acute" unicode="&#xb4;" 
 />
    <glyph glyph-name="paragraph" unicode="&#xb6;" 
d="M929 1435v-70h-127v-1365h-82v1365h-166v-1365h-84v738q-174 8 -275.5 102.5t-101.5 245.5q0 157 107.5 253t285.5 96h443z" />
    <glyph glyph-name="onequarter" unicode="&#xbc;" horiz-adv-x="1780" 
 />
    <glyph glyph-name="onehalf" unicode="&#xbd;" horiz-adv-x="1780" 
 />
    <glyph glyph-name="threequarters" unicode="&#xbe;" horiz-adv-x="1780" 
 />
    <glyph glyph-name="Agrave" unicode="&#xc0;" horiz-adv-x="1138" 
d="M317 1639h500l309 -1639h-397l-35 291h-264l-39 -291h-377zM614 2015l90 -278h-190l-223 278h323zM469 582h188l-88 803z" />
    <glyph glyph-name="Aacute" unicode="&#xc1;" horiz-adv-x="1138" 
d="M317 1639h500l309 -1639h-397l-35 291h-264l-39 -291h-377zM530 2015h318l-217 -278h-197zM469 582h188l-88 803z" />
    <glyph glyph-name="uni1EA2" unicode="&#x1ea2;" horiz-adv-x="1138" 
d="M317 1639h500l309 -1639h-397l-35 291h-264l-39 -291h-377zM469 582h188l-88 803zM474 1725q3 61 41 122l78 98q43 50 43 101q0 35 -10 57q-12 23 -45 23q-27 0 -43 -25q-12 -33 -12 -65v-56h-152v68q0 84 57 139q56 55 156 55q104 0 162 -45q55 -47 55 -145
q0 -72 -51 -137l-98 -105q-32 -42 -44 -85h-137z" />
    <glyph glyph-name="Atilde" unicode="&#xc3;" horiz-adv-x="1138" 
d="M317 1639h500l309 -1639h-397l-35 291h-264l-39 -291h-377zM903 1964q-41 -100 -84 -143q-59 -62 -150 -62q-53 0 -127 35q-73 33 -108 33q-23 0 -59 -25q-5 -4 -17 -18q-12 -16 -24 -31l-99 37q15 39 25 62q20 45 47 73q57 70 131 70q55 0 137 -31q80 -32 119 -39
q39 0 67.5 22.5t43.5 59.5zM469 582h188l-88 803z" />
    <glyph glyph-name="uni1EA0" unicode="&#x1ea0;" horiz-adv-x="1138" 
d="M317 1639h500l309 -1639h-397l-35 291h-264l-39 -291h-377zM469 582h188l-88 803zM383 -157h352v-242h-352v242z" />
    <glyph glyph-name="Acircumflex" unicode="&#xc2;" horiz-adv-x="1138" 
d="M317 1639h500l309 -1639h-397l-35 291h-264l-39 -291h-377zM266 1737l170 278h289l147 -278h-213l-90 156l-102 -156h-201zM469 582h188l-88 803z" />
    <glyph glyph-name="uni1EA6" unicode="&#x1ea6;" horiz-adv-x="1138" 
d="M317 1639h500l309 -1639h-397l-35 291h-264l-39 -291h-377zM266 1737l170 278h289l147 -278h-213l-90 156l-102 -156h-201zM469 582h188l-88 803zM912 2253l79 -250h-170l-200 250h291z" />
    <glyph glyph-name="uni1EA4" unicode="&#x1ea4;" horiz-adv-x="1138" 
d="M317 1639h500l309 -1639h-397l-35 291h-264l-39 -291h-377zM266 1737l170 278h289l147 -278h-213l-90 156l-102 -156h-201zM469 582h188l-88 803zM907 2267h287l-197 -249h-176z" />
    <glyph glyph-name="uni1EA8" unicode="&#x1ea8;" horiz-adv-x="1138" 
d="M317 1639h500l309 -1639h-397l-35 291h-264l-39 -291h-377zM266 1737l170 278h289l147 -278h-213l-90 156l-102 -156h-201zM469 582h188l-88 803zM829 1909v41q0 43 94 143q21 21 33 45.5t12 49.5q0 32 -10 45q-6 12 -39 14q-67 0 -67 -70v-49h-140v60q0 67 52 120
q59 60 161 60q89 0 144 -43t55 -129q0 -78 -84 -148q-86 -69 -86 -139h-125z" />
    <glyph glyph-name="uni1EAA" unicode="&#x1eaa;" horiz-adv-x="1138" 
d="M317 1639h500l309 -1639h-397l-35 291h-264l-39 -291h-377zM266 1737l170 278h289l147 -278h-213l-90 156l-102 -156h-201zM469 582h188l-88 803zM909 2304q-31 -86 -74 -129q-53 -55 -135 -55q-37 0 -84 18.5t-76 28.5q-30 8 -53 12q-20 0 -51 -18q-23 -19 -39 -47
l-88 33q29 73 66 120q51 64 116 64q43 0 123 -31t109 -31q32 0 57 19q23 16 41 55z" />
    <glyph glyph-name="uni1EAC" unicode="&#x1eac;" horiz-adv-x="1138" 
d="M317 1639h500l309 -1639h-397l-35 291h-264l-39 -291h-377zM266 1737l170 278h289l147 -278h-213l-90 156l-102 -156h-201zM469 582h188l-88 803zM383 -157h352v-242h-352v242z" />
    <glyph glyph-name="Abreve" unicode="&#x102;" horiz-adv-x="1138" 
d="M317 1639h500l309 -1639h-397l-35 291h-264l-39 -291h-377zM469 582h188l-88 803zM424 2013q0 -61 41 -96q41 -31 110 -31q72 0 107 27q33 27 45 100h155q0 -139 -84 -211q-83 -71 -223 -71q-145 0 -225 67q-82 68 -82 215h156z" />
    <glyph glyph-name="uni1EB0" unicode="&#x1eb0;" horiz-adv-x="1138" 
d="M317 1639h500l309 -1639h-397l-35 291h-264l-39 -291h-377zM469 582h188l-88 803zM424 2013q0 -61 41 -96q41 -31 110 -31q72 0 107 27q33 27 45 100h155q0 -139 -84 -211q-83 -71 -223 -71q-145 0 -225 67q-82 68 -82 215h156zM594 2305l90 -278h-190l-223 278h323z" />
    <glyph glyph-name="uni1EAE" unicode="&#x1eae;" horiz-adv-x="1138" 
d="M317 1639h500l309 -1639h-397l-35 291h-264l-39 -291h-377zM469 582h188l-88 803zM424 2013q0 -61 41 -96q41 -31 110 -31q72 0 107 27q33 27 45 100h155q0 -139 -84 -211q-83 -71 -223 -71q-145 0 -225 67q-82 68 -82 215h156zM884 2305l-223 -278h-190l90 278h323z" />
    <glyph glyph-name="uni1EB2" unicode="&#x1eb2;" horiz-adv-x="1138" 
d="M317 1639h500l309 -1639h-397l-35 291h-264l-39 -291h-377zM469 582h188l-88 803zM424 2013q0 -61 41 -96q41 -31 110 -31q72 0 107 27q33 27 45 100h155q0 -139 -84 -211q-83 -71 -223 -71q-145 0 -225 67q-82 68 -82 215h156zM502 2024v41q0 43 94 143q20 20 32 45
q13 25 13 49q0 33 -10 45q-7 13 -39 15q-68 0 -68 -70v-49h-139v59q0 68 51 121q59 59 162 59q88 0 143 -43t55 -129q0 -77 -84 -147q-86 -70 -86 -139h-124z" />
    <glyph glyph-name="uni1EB4" unicode="&#x1eb4;" horiz-adv-x="1138" 
d="M317 1639h500l309 -1639h-397l-35 291h-264l-39 -291h-377zM469 582h188l-88 803zM424 2013q0 -61 41 -96q41 -31 110 -31q72 0 107 27q33 27 45 100h155q0 -139 -84 -211q-83 -71 -223 -71q-145 0 -225 67q-82 68 -82 215h156zM835 2274q-41 -99 -84 -132
q-45 -32 -102 -32q-33 0 -119 37q-37 18 -69 18q-17 0 -46 -18l-36 -41l-78 28q37 94 75.5 129t86.5 35l39 -2q14 0 45 -14l120 -39q62 0 88 65z" />
    <glyph glyph-name="uni1EB6" unicode="&#x1eb6;" horiz-adv-x="1138" 
d="M317 1639h500l309 -1639h-397l-35 291h-264l-39 -291h-377zM469 582h188l-88 803zM424 2013q0 -61 41 -96q41 -31 110 -31q72 0 107 27q33 27 45 100h155q0 -139 -84 -211q-83 -71 -223 -71q-145 0 -225 67q-82 68 -82 215h156zM383 -157h352v-242h-352v242z" />
    <glyph glyph-name="Egrave" unicode="&#xc8;" 
d="M84 1639h838v-316h-461v-327h404v-316h-404v-364h479v-316h-856v1639zM557 2015l90 -278h-190l-223 278h323z" />
    <glyph glyph-name="Eacute" unicode="&#xc9;" 
d="M84 1639h838v-316h-461v-327h404v-316h-404v-364h479v-316h-856v1639zM473 2015h318l-217 -278h-197z" />
    <glyph glyph-name="uni1EBA" unicode="&#x1eba;" 
d="M84 1639h838v-316h-461v-327h404v-316h-404v-364h479v-316h-856v1639zM434 1725q3 61 41 122l78 98q43 50 43 101q0 35 -10 57q-12 23 -45 23q-27 0 -43 -25q-12 -33 -12 -65v-56h-152v68q0 84 57 139q56 55 156 55q104 0 162 -45q55 -47 55 -145q0 -72 -51 -137
l-98 -105q-32 -42 -44 -85h-137z" />
    <glyph glyph-name="uni1EBC" unicode="&#x1ebc;" 
d="M84 1639h838v-316h-461v-327h404v-316h-404v-364h479v-316h-856v1639zM879 1964q-41 -100 -84 -143q-60 -62 -150 -62q-53 0 -127 35q-73 33 -108 33q-23 0 -60 -25q-4 -4 -16 -18q-12 -16 -25 -31l-98 37q15 39 25 62q20 45 47 73q57 70 131 70q55 0 137 -31
q80 -32 119 -39q39 0 67.5 22.5t43.5 59.5z" />
    <glyph glyph-name="uni1EB8" unicode="&#x1eb8;" 
d="M84 1639h838v-316h-461v-327h404v-316h-404v-364h479v-316h-856v1639zM322 -157h352v-242h-352v242z" />
    <glyph glyph-name="Ecircumflex" unicode="&#xca;" 
d="M84 1639h838v-316h-461v-327h404v-316h-404v-364h479v-316h-856v1639zM209 1737l170 278h289l147 -278h-213l-90 156l-102 -156h-201z" />
    <glyph glyph-name="uni1EC0" unicode="&#x1ec0;" 
d="M84 1639h838v-316h-461v-327h404v-316h-404v-364h479v-316h-856v1639zM209 1737l170 278h289l147 -278h-213l-90 156l-102 -156h-201zM870 2217l80 -249h-170l-201 249h291z" />
    <glyph glyph-name="uni1EBE" unicode="&#x1ebe;" 
d="M84 1639h838v-316h-461v-327h404v-316h-404v-364h479v-316h-856v1639zM209 1737l170 278h289l147 -278h-213l-90 156l-102 -156h-201zM836 2207h287l-197 -249h-176z" />
    <glyph glyph-name="uni1EC2" unicode="&#x1ec2;" 
d="M84 1639h838v-316h-461v-327h404v-316h-404v-364h479v-316h-856v1639zM209 1737l170 278h289l147 -278h-213l-90 156l-102 -156h-201zM781 1909v41q0 43 94 143q20 21 32.5 45.5t12.5 49.5q0 32 -10 45q-7 12 -39 14q-68 0 -68 -70v-49h-139v60q0 67 51 120q59 60 162 60
q88 0 143 -43t55 -129q0 -78 -84 -148q-86 -69 -86 -139h-124z" />
    <glyph glyph-name="uni1EC4" unicode="&#x1ec4;" 
d="M84 1639h838v-316h-461v-327h404v-316h-404v-364h479v-316h-856v1639zM209 1737l170 278h289l147 -278h-213l-90 156l-102 -156h-201zM872 2263q-30 -86 -73 -129q-54 -55 -136 -55q-37 0 -84 18.5t-75 28.5q-31 8 -54 12q-20 0 -51 -18q-22 -19 -39 -47l-88 33
q29 73 66 120q51 64 116 64q43 0 123 -31t109 -31q33 0 57 19q23 16 41 55z" />
    <glyph glyph-name="uni1EC6" unicode="&#x1ec6;" 
d="M84 1639h838v-316h-461v-327h404v-316h-404v-364h479v-316h-856v1639zM209 1737l170 278h289l147 -278h-213l-90 156l-102 -156h-201zM322 -157h352v-242h-352v242z" />
    <glyph glyph-name="Igrave" unicode="&#xcc;" horiz-adv-x="569" 
d="M97 1639h376v-1639h-376v1639zM330 2015l90 -278h-190l-224 278h324z" />
    <glyph glyph-name="Iacute" unicode="&#xcd;" horiz-adv-x="569" 
d="M96 1639h377v-1639h-377v1639zM246 2015h317l-217 -278h-197z" />
    <glyph glyph-name="uni1EC8" unicode="&#x1ec8;" horiz-adv-x="569" 
d="M96 1639h377v-1639h-377v1639zM211 1725q3 61 41 122l78 98q43 50 43 101q0 35 -10 57q-12 23 -45 23q-27 0 -43 -25q-12 -33 -12 -65v-56h-152v68q0 84 57 139q56 55 156 55q104 0 162 -45q55 -47 55 -145q0 -72 -51 -137l-98 -105q-32 -42 -44 -85h-137z" />
    <glyph glyph-name="Itilde" unicode="&#x128;" horiz-adv-x="569" 
d="M97 1639h376v-1639h-376v1639zM617 1964q-41 -100 -84 -143q-60 -62 -150 -62q-53 0 -127 35q-73 33 -108 33q-23 0 -60 -25q-4 -4 -16 -18q-12 -16 -25 -31l-98 37q14 39 25 62q20 45 47 73q57 70 131 70q55 0 137 -31q80 -32 119 -39q39 0 67 23q29 22 43 59z" />
    <glyph glyph-name="uni1ECA" unicode="&#x1eca;" horiz-adv-x="569" 
d="M96 1639h377v-1639h-377v1639zM102 -157h352v-242h-352v242z" />
    <glyph glyph-name="Ograve" unicode="&#xd2;" horiz-adv-x="1138" 
d="M84 1192q0 232 137 357q129 116 349 116q217 0 352 -119q135 -120 135 -354v-745q0 -215 -131 -344t-356 -129q-222 0 -353 127q-133 127 -133 346v745zM686 2073l90 -279h-190l-223 279h323zM461 414q0 -74 25 -115q24 -35 84 -35q67 0 94 58q14 43 14 92v811
q0 59 -12 94q-25 55 -96 55q-68 0 -95 -53q-14 -43 -14 -96v-811z" />
    <glyph glyph-name="Oacute" unicode="&#xd3;" horiz-adv-x="1138" 
d="M84 1192q0 232 137 357q129 116 349 116q217 0 352 -119q135 -120 135 -354v-745q0 -215 -131 -344t-356 -129q-222 0 -353 127q-133 127 -133 346v745zM531 2015h317l-217 -278h-197zM461 414q0 -74 25 -115q24 -35 84 -35q67 0 94 58q14 43 14 92v811q0 59 -12 94
q-25 55 -96 55q-68 0 -95 -53q-14 -43 -14 -96v-811z" />
    <glyph glyph-name="uni1ECE" unicode="&#x1ece;" horiz-adv-x="1138" 
d="M461 414q0 -74 25 -115q24 -35 84 -35q67 0 94 58q14 43 14 92v811q0 59 -12 94q-25 55 -96 55q-68 0 -95 -53q-14 -43 -14 -96v-811zM84 1192q0 232 137 357q129 116 349 116q217 0 352 -119q135 -120 135 -354v-745q0 -215 -131 -344t-356 -129q-222 0 -353 127
q-133 127 -133 346v745zM502 1725q3 61 41 122l78 98q43 50 43 101q0 35 -10 57q-12 23 -45 23q-27 0 -43 -25q-12 -33 -12 -65v-56h-152v68q0 84 57 139q56 55 156 55q104 0 162 -45q55 -47 55 -145q0 -72 -51 -137l-98 -105q-32 -42 -44 -85h-137z" />
    <glyph glyph-name="Otilde" unicode="&#xd5;" horiz-adv-x="1138" 
d="M84 1192q0 232 137 357q129 116 349 116q217 0 352 -119q135 -120 135 -354v-745q0 -215 -131 -344t-356 -129q-222 0 -353 127q-133 127 -133 346v745zM903 1964q-41 -100 -84 -143q-59 -62 -149 -62q-53 0 -127 35q-74 33 -109 33q-22 0 -59 -25q-4 -4 -16 -18
q-13 -16 -25 -31l-98 37q14 39 24 62q21 45 47 73q58 70 132 70q55 0 137 -31q80 -32 119 -39q38 0 67 22.5t43 59.5zM461 414q0 -74 25 -115q24 -35 84 -35q67 0 94 58q14 43 14 92v811q0 59 -12 94q-25 55 -96 55q-68 0 -95 -53q-14 -43 -14 -96v-811z" />
    <glyph glyph-name="uni1ECC" unicode="&#x1ecc;" horiz-adv-x="1138" 
d="M461 414q0 -74 25 -115q24 -35 84 -35q67 0 94 58q14 43 14 92v811q0 59 -12 94q-25 55 -96 55q-68 0 -95 -53q-14 -43 -14 -96v-811zM84 1192q0 232 137 357q129 116 349 116q217 0 352 -119q135 -120 135 -354v-745q0 -215 -131 -344t-356 -129q-222 0 -353 127
q-133 127 -133 346v745zM398 -157h352v-242h-352v242z" />
    <glyph glyph-name="Ocircumflex" unicode="&#xd4;" horiz-adv-x="1138" 
d="M84 1192q0 232 137 357q129 116 349 116q217 0 352 -119q135 -120 135 -354v-745q0 -215 -131 -344t-356 -129q-222 0 -353 127q-133 127 -133 346v745zM266 1737l170 278h289l148 -278h-213l-90 156l-103 -156h-201zM461 414q0 -74 25 -115q24 -35 84 -35q67 0 94 58
q14 43 14 92v811q0 59 -12 94q-25 55 -96 55q-68 0 -95 -53q-14 -43 -14 -96v-811z" />
    <glyph glyph-name="uni1ED2" unicode="&#x1ed2;" horiz-adv-x="1138" 
d="M84 1192q0 232 137 357q129 116 349 116q217 0 352 -119q135 -120 135 -354v-745q0 -215 -131 -344t-356 -129q-222 0 -353 127q-133 127 -133 346v745zM266 1737l170 278h289l148 -278h-213l-90 156l-103 -156h-201zM461 414q0 -74 25 -115q24 -35 84 -35q67 0 94 58
q14 43 14 92v811q0 59 -12 94q-25 55 -96 55q-68 0 -95 -53q-14 -43 -14 -96v-811zM892 2239l80 -250h-170l-201 250h291z" />
    <glyph glyph-name="uni1ED0" unicode="&#x1ed0;" horiz-adv-x="1138" 
d="M84 1192q0 232 137 357q129 116 349 116q217 0 352 -119q135 -120 135 -354v-745q0 -215 -131 -344t-356 -129q-222 0 -353 127q-133 127 -133 346v745zM266 1737l170 278h289l148 -278h-213l-90 156l-103 -156h-201zM461 414q0 -74 25 -115q24 -35 84 -35q67 0 94 58
q14 43 14 92v811q0 59 -12 94q-25 55 -96 55q-68 0 -95 -53q-14 -43 -14 -96v-811zM869 2267h286l-196 -249h-177z" />
    <glyph glyph-name="uni1ED4" unicode="&#x1ed4;" horiz-adv-x="1138" 
d="M84 1192q0 232 137 357q129 116 349 116q217 0 352 -119q135 -120 135 -354v-745q0 -215 -131 -344t-356 -129q-222 0 -353 127q-133 127 -133 346v745zM266 1737l170 278h289l148 -278h-213l-90 156l-103 -156h-201zM461 414q0 -74 25 -115q24 -35 84 -35q67 0 94 58
q14 43 14 92v811q0 59 -12 94q-25 55 -96 55q-68 0 -95 -53q-14 -43 -14 -96v-811zM862 1893v41q0 43 95 143q20 20 32 45q13 25 13 49q0 33 -11 45q-6 12 -38 15q-68 0 -68 -70v-49h-139v59q0 68 51 121q59 59 162 59q88 0 143 -43t55 -129q0 -78 -84 -147
q-86 -70 -86 -139h-125z" />
    <glyph glyph-name="uni1ED6" unicode="&#x1ed6;" horiz-adv-x="1138" 
d="M84 1192q0 232 137 357q129 116 349 116q217 0 352 -119q135 -120 135 -354v-745q0 -215 -131 -344t-356 -129q-222 0 -353 127q-133 127 -133 346v745zM266 1737l170 278h289l148 -278h-213l-90 156l-103 -156h-201zM461 414q0 -74 25 -115q24 -35 84 -35q67 0 94 58
q14 43 14 92v811q0 59 -12 94q-25 55 -96 55q-68 0 -95 -53q-14 -43 -14 -96v-811zM872 2263q-30 -86 -73 -129q-54 -55 -136 -55q-37 0 -84 18.5t-75 28.5q-31 8 -54 12q-20 0 -51 -18q-22 -19 -39 -47l-88 33q29 73 66 120q51 64 116 64q43 0 123 -31t109 -31q33 0 57 19
q23 16 41 55z" />
    <glyph glyph-name="uni1ED8" unicode="&#x1ed8;" horiz-adv-x="1138" 
d="M84 1192q0 232 137 357q129 116 349 116q217 0 352 -119q135 -120 135 -354v-745q0 -215 -131 -344t-356 -129q-222 0 -353 127q-133 127 -133 346v745zM266 1737l170 278h289l148 -278h-213l-90 156l-103 -156h-201zM461 414q0 -74 25 -115q24 -35 84 -35q67 0 94 58
q14 43 14 92v811q0 59 -12 94q-25 55 -96 55q-68 0 -95 -53q-14 -43 -14 -96v-811zM398 -157h352v-242h-352v242z" />
    <glyph glyph-name="Ugrave" unicode="&#xd9;" horiz-adv-x="1138" 
d="M84 1639h377v-1196q0 -86 16 -125q15 -41 93 -41q53 0 82 32q26 31 26 134v1196h379v-1192q0 -215 -131 -344t-356 -129q-222 0 -353 127q-133 127 -133 346v1192zM615 2015l90 -278h-191l-223 278h324z" />
    <glyph glyph-name="Uacute" unicode="&#xda;" horiz-adv-x="1138" 
d="M84 1639h377v-1196q0 -86 16 -125q15 -41 93 -41q53 0 82 32q26 31 26 134v1196h379v-1192q0 -215 -131 -344t-356 -129q-222 0 -353 127q-133 127 -133 346v1192zM531 2015h317l-217 -278h-197z" />
    <glyph glyph-name="uni1EE6" unicode="&#x1ee6;" horiz-adv-x="1138" 
d="M84 1639h377v-1196q0 -86 16 -125q15 -41 93 -41q53 0 82 32q26 31 26 134v1196h379v-1192q0 -215 -131 -344t-356 -129q-222 0 -353 127q-133 127 -133 346v1192zM502 1725q3 61 41 122l78 98q43 50 43 101q0 35 -10 57q-12 23 -45 23q-27 0 -43 -25q-12 -33 -12 -65
v-56h-152v68q0 84 57 139q56 55 156 55q104 0 162 -45q55 -47 55 -145q0 -72 -51 -137l-98 -105q-32 -42 -44 -85h-137z" />
    <glyph glyph-name="Utilde" unicode="&#x168;" horiz-adv-x="1138" 
d="M84 1639h377v-1196q0 -86 16 -125q15 -41 93 -41q53 0 82 32q26 31 26 134v1196h379v-1192q0 -215 -131 -344t-356 -129q-222 0 -353 127q-133 127 -133 346v1192zM936 1964q-41 -100 -84 -143q-59 -62 -149 -62q-54 0 -127 35q-74 33 -109 33q-22 0 -59 -25
q-4 -4 -17 -18q-12 -16 -24 -31l-98 37q14 39 24 62q21 45 47 73q58 70 131 70q56 0 138 -31q79 -32 118 -39q39 0 68 23q29 22 43 59z" />
    <glyph glyph-name="uni1EE4" unicode="&#x1ee4;" horiz-adv-x="1138" 
d="M84 1639h377v-1196q0 -86 16 -125q15 -41 93 -41q53 0 82 32q26 31 26 134v1196h379v-1192q0 -215 -131 -344t-356 -129q-222 0 -353 127q-133 127 -133 346v1192zM398 -157h352v-242h-352v242z" />
    <glyph glyph-name="Uhorn" unicode="&#x1af;" horiz-adv-x="1138" 
d="M1004 1821h278l-1 -272l-131 -138h-91l-2 -964q0 -215 -131 -344t-356 -129q-222 0 -353 127q-133 127 -133 346v1192h377v-1196q0 -86 16 -125q15 -41 93 -41q53 0 82 32q26 31 26 134v1196l326 -4v186z" />
    <glyph glyph-name="uni1EEA" unicode="&#x1eea;" horiz-adv-x="1138" 
d="M615 2015l90 -278h-191l-223 278h324zM1004 1821h278l-1 -272l-131 -138h-91l-2 -964q0 -215 -131 -344t-356 -129q-222 0 -353 127q-133 127 -133 346v1192h377v-1196q0 -86 16 -125q15 -41 93 -41q53 0 82 32q26 31 26 134v1196l326 -4v186z" />
    <glyph glyph-name="uni1EE8" unicode="&#x1ee8;" horiz-adv-x="1138" 
d="M531 2015h317l-217 -278h-197zM1004 1821h278l-1 -272l-131 -138h-91l-2 -964q0 -215 -131 -344t-356 -129q-222 0 -353 127q-133 127 -133 346v1192h377v-1196q0 -86 16 -125q15 -41 93 -41q53 0 82 32q26 31 26 134v1196l326 -4v186z" />
    <glyph glyph-name="uni1EEC" unicode="&#x1eec;" horiz-adv-x="1138" 
d="M502 1725q3 61 41 122l78 98q43 50 43 101q0 35 -10 57q-12 23 -45 23q-27 0 -43 -25q-12 -33 -12 -65v-56h-152v68q0 84 57 139q56 55 156 55q104 0 162 -45q55 -47 55 -145q0 -72 -51 -137l-98 -105q-32 -42 -44 -85h-137zM1004 1821h278l-1 -272l-131 -138h-91
l-2 -964q0 -215 -131 -344t-356 -129q-222 0 -353 127q-133 127 -133 346v1192h377v-1196q0 -86 16 -125q15 -41 93 -41q53 0 82 32q26 31 26 134v1196l326 -4v186z" />
    <glyph glyph-name="uni1EEE" unicode="&#x1eee;" horiz-adv-x="1138" 
d="M936 1964q-41 -100 -84 -143q-59 -62 -149 -62q-54 0 -127 35q-74 33 -109 33q-22 0 -59 -25q-4 -4 -17 -18q-12 -16 -24 -31l-98 37q14 39 24 62q21 45 47 73q58 70 131 70q56 0 138 -31q79 -32 118 -39q39 0 68 23q29 22 43 59zM1004 1821h278l-1 -272l-131 -138h-91
l-2 -964q0 -215 -131 -344t-356 -129q-222 0 -353 127q-133 127 -133 346v1192h377v-1196q0 -86 16 -125q15 -41 93 -41q53 0 82 32q26 31 26 134v1196l326 -4v186z" />
    <glyph glyph-name="uni1EF0" unicode="&#x1ef0;" horiz-adv-x="1138" 
d="M398 -157h352v-242h-352v242zM1004 1821h278l-1 -272l-131 -138h-91l-2 -964q0 -215 -131 -344t-356 -129q-222 0 -353 127q-133 127 -133 346v1192h377v-1196q0 -86 16 -125q15 -41 93 -41q53 0 82 32q26 31 26 134v1196l326 -4v186z" />
    <glyph glyph-name="Ohorn" unicode="&#x1a0;" horiz-adv-x="1138" 
d="M461 414q0 -74 25 -115q24 -35 84 -35q67 0 94 58q14 43 14 92v811q0 59 -12 94q-25 55 -96 55q-68 0 -95 -53q-14 -43 -14 -96v-811zM1014 1420q43 -96 43 -228v-745q0 -215 -131 -344t-356 -129q-222 0 -353 127q-133 127 -133 346v745q0 232 137 357q129 116 349 116
q169 0 289 -72v228h278l-1 -272z" />
    <glyph glyph-name="uni1EDC" unicode="&#x1edc;" horiz-adv-x="1138" 
d="M686 2073l90 -279h-190l-223 279h323zM461 414q0 -74 25 -115q24 -35 84 -35q67 0 94 58q14 43 14 92v811q0 59 -12 94q-25 55 -96 55q-68 0 -95 -53q-14 -43 -14 -96v-811zM1014 1420q43 -96 43 -228v-745q0 -215 -131 -344t-356 -129q-222 0 -353 127
q-133 127 -133 346v745q0 232 137 357q129 116 349 116q169 0 289 -72v228h278l-1 -272z" />
    <glyph glyph-name="uni1EDA" unicode="&#x1eda;" horiz-adv-x="1138" 
d="M531 2015h317l-217 -278h-197zM461 414q0 -74 25 -115q24 -35 84 -35q67 0 94 58q14 43 14 92v811q0 59 -12 94q-25 55 -96 55q-68 0 -95 -53q-14 -43 -14 -96v-811zM1014 1420q43 -96 43 -228v-745q0 -215 -131 -344t-356 -129q-222 0 -353 127q-133 127 -133 346v745
q0 232 137 357q129 116 349 116q169 0 289 -72v228h278l-1 -272z" />
    <glyph glyph-name="uni1EDE" unicode="&#x1ede;" horiz-adv-x="1138" 
d="M461 414q0 -74 25 -115q24 -35 84 -35q67 0 94 58q14 43 14 92v811q0 59 -12 94q-25 55 -96 55q-68 0 -95 -53q-14 -43 -14 -96v-811zM502 1725q3 61 41 122l78 98q43 50 43 101q0 35 -10 57q-12 23 -45 23q-27 0 -43 -25q-12 -33 -12 -65v-56h-152v68q0 84 57 139
q56 55 156 55q104 0 162 -45q55 -47 55 -145q0 -72 -51 -137l-98 -105q-32 -42 -44 -85h-137zM1014 1420q43 -96 43 -228v-745q0 -215 -131 -344t-356 -129q-222 0 -353 127q-133 127 -133 346v745q0 232 137 357q129 116 349 116q169 0 289 -72v228h278l-1 -272z" />
    <glyph glyph-name="uni1EE0" unicode="&#x1ee0;" horiz-adv-x="1138" 
d="M903 2022q-41 -100 -84 -143q-59 -62 -149 -62q-53 0 -127 35q-74 33 -109 33q-22 0 -59 -25q-4 -4 -16 -18q-13 -16 -25 -31l-98 37q14 39 24 62q21 45 47 73q58 70 132 70q55 0 137 -31q80 -32 119 -39q38 0 67 22.5t43 59.5zM461 414q0 -74 25 -115q24 -35 84 -35
q67 0 94 58q14 43 14 92v811q0 59 -12 94q-25 55 -96 55q-68 0 -95 -53q-14 -43 -14 -96v-811zM1014 1420q43 -96 43 -228v-745q0 -215 -131 -344t-356 -129q-222 0 -353 127q-133 127 -133 346v745q0 232 137 357q129 116 349 116q169 0 289 -72v228h278l-1 -272z" />
    <glyph glyph-name="uni1EE2" unicode="&#x1ee2;" horiz-adv-x="1138" 
d="M461 414q0 -74 25 -115q24 -35 84 -35q67 0 94 58q14 43 14 92v811q0 59 -12 94q-25 55 -96 55q-68 0 -95 -53q-14 -43 -14 -96v-811zM398 -157h352v-242h-352v242zM1014 1420q43 -96 43 -228v-745q0 -215 -131 -344t-356 -129q-222 0 -353 127q-133 127 -133 346v745
q0 232 137 357q129 116 349 116q169 0 289 -72v228h278l-1 -272z" />
    <glyph glyph-name="Ygrave" unicode="&#x1ef2;" 
d="M16 1639h389l105 -553l114 553h383l-307 -965v-674h-377v647zM559 2015l90 -278h-190l-224 278h324z" />
    <glyph glyph-name="Yacute" unicode="&#xdd;" 
d="M16 1639h389l105 -553l114 553h383l-307 -965v-674h-377v647zM473 2015h317l-217 -278h-196z" />
    <glyph glyph-name="uni1EF6" unicode="&#x1ef6;" 
d="M16 1639h389l105 -553l114 553h383l-307 -965v-674h-377v647zM429 1725q3 61 41 122l78 98q43 50 43 101q0 35 -10 57q-12 23 -45 23q-27 0 -43 -25q-12 -33 -12 -65v-56h-152v68q0 84 57 139q56 55 156 55q104 0 162 -45q55 -47 55 -145q0 -72 -51 -137l-98 -105
q-32 -42 -44 -85h-137z" />
    <glyph glyph-name="uni1EF8" unicode="&#x1ef8;" 
d="M16 1639h389l105 -553l114 553h383l-307 -965v-674h-377v647zM854 1964q-41 -100 -84 -143q-60 -62 -150 -62q-53 0 -127 35q-73 33 -108 33q-23 0 -60 -25q-4 -4 -16 -18q-12 -16 -25 -31l-98 37q14 39 25 62q20 45 47 73q57 70 131 70q55 0 137 -31q80 -32 119 -39
q39 0 67 23q29 22 43 59z" />
    <glyph glyph-name="uni1EF4" unicode="&#x1ef4;" 
d="M16 1639h389l105 -553l114 553h383l-307 -965v-674h-377v647zM336 -157h352v-242h-352v242z" />
    <glyph glyph-name="agrave" unicode="&#xe0;" 
d="M944 0h-323v101q-92 -127 -254 -127q-174 0 -240 120q-47 89 -47 279q0 166 84 262q59 70 182 123q156 61 179 82q79 53 79 145q0 52 -16 82q-18 29 -66 29q-90 0 -90 -92v-107h-327v119q0 145 116 234q117 88 297 88q234 0 330 -97q96 -96 96 -315v-926zM557 1688
l90 -279h-190l-223 279h323zM604 658l-98 -72q-61 -47 -61 -117v-174q0 -104 77 -104q37 0 62 30q20 37 20 84v353z" />
    <glyph glyph-name="aacute" unicode="&#xe1;" 
d="M944 0h-323v101q-92 -127 -254 -127q-174 0 -240 120q-47 89 -47 279q0 166 84 262q59 70 182 123q156 61 179 82q79 53 79 145q0 52 -16 82q-18 29 -66 29q-90 0 -90 -92v-107h-327v119q0 145 116 234q117 88 297 88q234 0 330 -97q96 -96 96 -315v-926zM473 1688h318
l-217 -279h-197zM604 658l-98 -72q-61 -47 -61 -117v-174q0 -104 77 -104q37 0 62 30q20 37 20 84v353z" />
    <glyph glyph-name="uni1EA3" unicode="&#x1ea3;" 
d="M944 0h-323v101q-92 -127 -254 -127q-174 0 -240 120q-47 89 -47 279q0 166 84 262q59 70 182 123q156 61 179 82q79 53 79 145q0 52 -16 82q-18 29 -66 29q-90 0 -90 -92v-107h-327v119q0 145 116 234q117 88 297 88q234 0 330 -97q96 -96 96 -315v-926zM604 658
l-98 -72q-61 -47 -61 -117v-174q0 -104 77 -104q37 0 62 30q20 37 20 84v353zM469 1417v41q0 43 94 144q21 20 33.5 44.5t12.5 49.5q0 33 -11 45q-6 12 -39 14q-67 0 -67 -69v-49h-139v59q0 68 51 121q59 59 161 59q89 0 144 -43t55 -129q0 -78 -84 -147q-86 -70 -86 -140
h-125z" />
    <glyph glyph-name="atilde" unicode="&#xe3;" 
d="M944 0h-323v101q-92 -127 -254 -127q-174 0 -240 120q-47 89 -47 279q0 166 84 262q59 70 182 123q156 61 179 82q79 53 79 145q0 52 -16 82q-18 29 -66 29q-90 0 -90 -92v-107h-327v119q0 145 116 234q117 88 297 88q234 0 330 -97q96 -96 96 -315v-926zM604 658
l-98 -72q-61 -47 -61 -117v-174q0 -104 77 -104q37 0 62 30q20 37 20 84v353zM867 1637q-41 -101 -84 -144q-60 -61 -150 -61q-53 0 -127 35q-74 32 -108 32q-23 0 -60 -24q-4 -4 -16 -19q-13 -16 -25 -30l-98 37q14 38 24 61q21 45 48 74q57 69 131 69q55 0 137 -30
q80 -33 119 -39q39 0 67.5 22.5t42.5 59.5z" />
    <glyph glyph-name="uni1EA1" unicode="&#x1ea1;" 
d="M944 0h-323v101q-92 -127 -254 -127q-174 0 -240 120q-47 89 -47 279q0 166 84 262q59 70 182 123q156 61 179 82q79 53 79 145q0 52 -16 82q-18 29 -66 29q-90 0 -90 -92v-107h-327v119q0 145 116 234q117 88 297 88q234 0 330 -97q96 -96 96 -315v-926zM604 658
l-98 -72q-61 -47 -61 -117v-174q0 -104 77 -104q37 0 62 30q20 37 20 84v353zM334 -157h352v-242h-352v242z" />
    <glyph glyph-name="acircumflex" unicode="&#xe2;" 
d="M944 0h-323v101q-92 -127 -254 -127q-174 0 -240 120q-47 89 -47 279q0 166 84 262q59 70 182 123q156 61 179 82q79 53 79 145q0 52 -16 82q-18 29 -66 29q-90 0 -90 -92v-107h-327v119q0 145 116 234q117 88 297 88q234 0 330 -97q96 -96 96 -315v-926zM209 1409
l170 279h289l147 -279h-213l-90 156l-102 -156h-201zM604 658l-98 -72q-61 -47 -61 -117v-174q0 -104 77 -104q37 0 62 30q20 37 20 84v353z" />
    <glyph glyph-name="uni1EA7" unicode="&#x1ea7;" 
d="M944 0h-323v101q-92 -127 -254 -127q-174 0 -240 120q-47 89 -47 279q0 166 84 262q59 70 182 123q156 61 179 82q79 53 79 145q0 52 -16 82q-18 29 -66 29q-90 0 -90 -92v-107h-327v119q0 145 116 234q117 88 297 88q234 0 330 -97q96 -96 96 -315v-926zM209 1409
l170 279h289l147 -279h-213l-90 156l-102 -156h-201zM604 658l-98 -72q-61 -47 -61 -117v-174q0 -104 77 -104q37 0 62 30q20 37 20 84v353zM807 1961l162 -336h-190l-295 336h323z" />
    <glyph glyph-name="uni1EA5" unicode="&#x1ea5;" 
d="M944 0h-323v101q-92 -127 -254 -127q-174 0 -240 120q-47 89 -47 279q0 166 84 262q59 70 182 123q156 61 179 82q79 53 79 145q0 52 -16 82q-18 29 -66 29q-90 0 -90 -92v-107h-327v119q0 145 116 234q117 88 297 88q234 0 330 -97q96 -96 96 -315v-926zM209 1409
l170 279h289l147 -279h-213l-90 156l-102 -156h-201zM604 658l-98 -72q-61 -47 -61 -117v-174q0 -104 77 -104q37 0 62 30q20 37 20 84v353zM891 1985h320l-248 -379h-197z" />
    <glyph glyph-name="uni1EA9" unicode="&#x1ea9;" 
d="M944 0h-323v101q-92 -127 -254 -127q-174 0 -240 120q-47 89 -47 279q0 166 84 262q59 70 182 123q156 61 179 82q79 53 79 145q0 52 -16 82q-18 29 -66 29q-90 0 -90 -92v-107h-327v119q0 145 116 234q117 88 297 88q234 0 330 -97q96 -96 96 -315v-926zM209 1409
l170 279h289l147 -279h-213l-90 156l-102 -156h-201zM604 658l-98 -72q-61 -47 -61 -117v-174q0 -104 77 -104q37 0 62 30q20 37 20 84v353zM764 1581v41q0 43 94 144q21 20 33 44.5t12 49.5q0 33 -10 45q-6 12 -39 14q-67 0 -67 -69v-50h-140v60q0 67 52 121q59 59 161 59
q88 0 143.5 -43t55.5 -129q0 -78 -84 -147q-86 -70 -86 -140h-125z" />
    <glyph glyph-name="uni1EAB" unicode="&#x1eab;" 
d="M944 0h-323v101q-92 -127 -254 -127q-174 0 -240 120q-47 89 -47 279q0 166 84 262q59 70 182 123q156 61 179 82q79 53 79 145q0 52 -16 82q-18 29 -66 29q-90 0 -90 -92v-107h-327v119q0 145 116 234q117 88 297 88q234 0 330 -97q96 -96 96 -315v-926zM209 1409
l170 279h289l147 -279h-213l-90 156l-102 -156h-201zM604 658l-98 -72q-61 -47 -61 -117v-174q0 -104 77 -104q37 0 62 30q20 37 20 84v353zM915 1927q-41 -101 -84 -144q-60 -61 -150 -61q-53 0 -127 35q-74 32 -108 32q-23 0 -60 -24q-4 -4 -16 -19q-13 -16 -25 -30
l-98 37q14 38 24 61q21 45 48 74q57 69 131 69q55 0 137 -30q80 -33 119 -39q39 0 67.5 22.5t42.5 59.5z" />
    <glyph glyph-name="uni1EAD" unicode="&#x1ead;" 
d="M944 0h-323v101q-92 -127 -254 -127q-174 0 -240 120q-47 89 -47 279q0 166 84 262q59 70 182 123q156 61 179 82q79 53 79 145q0 52 -16 82q-18 29 -66 29q-90 0 -90 -92v-107h-327v119q0 145 116 234q117 88 297 88q234 0 330 -97q96 -96 96 -315v-926zM209 1409
l170 279h289l147 -279h-213l-90 156l-102 -156h-201zM604 658l-98 -72q-61 -47 -61 -117v-174q0 -104 77 -104q37 0 62 30q20 37 20 84v353zM334 -157h352v-242h-352v242z" />
    <glyph glyph-name="abreve" unicode="&#x103;" 
d="M944 0h-323v101q-92 -127 -254 -127q-174 0 -240 120q-47 89 -47 279q0 166 84 262q59 70 182 123q156 61 179 82q79 53 79 145q0 52 -16 82q-18 29 -66 29q-90 0 -90 -92v-107h-327v119q0 145 116 234q117 88 297 88q234 0 330 -97q96 -96 96 -315v-926zM604 658
l-98 -72q-61 -47 -61 -117v-174q0 -104 77 -104q37 0 62 30q20 37 20 84v353zM373 1706q0 -61 41 -96q41 -31 111 -31q71 0 106 27q33 27 45 100h156q0 -139 -84 -210.5t-223 -71.5q-146 0 -226 67q-82 68 -82 215h156z" />
    <glyph glyph-name="uni1EB1" unicode="&#x1eb1;" 
d="M944 0h-323v101q-92 -127 -254 -127q-174 0 -240 120q-47 89 -47 279q0 166 84 262q59 70 182 123q156 61 179 82q79 53 79 145q0 52 -16 82q-18 29 -66 29q-90 0 -90 -92v-107h-327v119q0 145 116 234q117 88 297 88q234 0 330 -97q96 -96 96 -315v-926zM604 658
l-98 -72q-61 -47 -61 -117v-174q0 -104 77 -104q37 0 62 30q20 37 20 84v353zM373 1706q0 -61 41 -96q41 -31 111 -31q71 0 106 27q33 27 45 100h156q0 -139 -84 -210.5t-223 -71.5q-146 0 -226 67q-82 68 -82 215h156zM468 2048l162 -336h-190l-295 336h323z" />
    <glyph glyph-name="uni1EAF" unicode="&#x1eaf;" 
d="M944 0h-323v101q-92 -127 -254 -127q-174 0 -240 120q-47 89 -47 279q0 166 84 262q59 70 182 123q156 61 179 82q79 53 79 145q0 52 -16 82q-18 29 -66 29q-90 0 -90 -92v-107h-327v119q0 145 116 234q117 88 297 88q234 0 330 -97q96 -96 96 -315v-926zM604 658
l-98 -72q-61 -47 -61 -117v-174q0 -104 77 -104q37 0 62 30q20 37 20 84v353zM373 1706q0 -61 41 -96q41 -31 111 -31q71 0 106 27q33 27 45 100h156q0 -139 -84 -210.5t-223 -71.5q-146 0 -226 67q-82 68 -82 215h156zM911 2039l-295 -336h-190l162 336h323z" />
    <glyph glyph-name="uni1EB3" unicode="&#x1eb3;" 
d="M944 0h-323v101q-92 -127 -254 -127q-174 0 -240 120q-47 89 -47 279q0 166 84 262q59 70 182 123q156 61 179 82q79 53 79 145q0 52 -16 82q-18 29 -66 29q-90 0 -90 -92v-107h-327v119q0 145 116 234q117 88 297 88q234 0 330 -97q96 -96 96 -315v-926zM604 658
l-98 -72q-61 -47 -61 -117v-174q0 -104 77 -104q37 0 62 30q20 37 20 84v353zM373 1706q0 -61 41 -96q41 -31 111 -31q71 0 106 27q33 27 45 100h156q0 -139 -84 -210.5t-223 -71.5q-146 0 -226 67q-82 68 -82 215h156zM459 1683v41q0 43 94 144q21 20 33.5 44.5t12.5 49.5
q0 33 -11 45q-6 12 -39 14q-67 0 -67 -69v-49h-139v59q0 68 51 121q59 59 161 59q89 0 144 -43t55 -129q0 -78 -84 -147q-86 -70 -86 -140h-125z" />
    <glyph glyph-name="uni1EB5" unicode="&#x1eb5;" 
d="M944 0h-323v101q-92 -127 -254 -127q-174 0 -240 120q-47 89 -47 279q0 166 84 262q59 70 182 123q156 61 179 82q79 53 79 145q0 52 -16 82q-18 29 -66 29q-90 0 -90 -92v-107h-327v119q0 145 116 234q117 88 297 88q234 0 330 -97q96 -96 96 -315v-926zM604 658
l-98 -72q-61 -47 -61 -117v-174q0 -104 77 -104q37 0 62 30q20 37 20 84v353zM373 1706q0 -61 41 -96q41 -31 111 -31q71 0 106 27q33 27 45 100h156q0 -139 -84 -210.5t-223 -71.5q-146 0 -226 67q-82 68 -82 215h156zM896 1985q-41 -101 -84 -144q-60 -61 -150 -61
q-53 0 -127 35q-74 32 -108 32q-23 0 -60 -24q-4 -4 -16 -19q-13 -16 -25 -30l-98 37q14 38 24 61q21 45 48 74q57 69 131 69q55 0 137 -30q80 -33 119 -39q39 0 67.5 22.5t42.5 59.5z" />
    <glyph glyph-name="uni1EB7" unicode="&#x1eb7;" 
d="M944 0h-323v101q-92 -127 -254 -127q-174 0 -240 120q-47 89 -47 279q0 166 84 262q59 70 182 123q156 61 179 82q79 53 79 145q0 52 -16 82q-18 29 -66 29q-90 0 -90 -92v-107h-327v119q0 145 116 234q117 88 297 88q234 0 330 -97q96 -96 96 -315v-926zM604 658
l-98 -72q-61 -47 -61 -117v-174q0 -104 77 -104q37 0 62 30q20 37 20 84v353zM373 1706q0 -61 41 -96q41 -31 111 -31q71 0 106 27q33 27 45 100h156q0 -139 -84 -210.5t-223 -71.5q-146 0 -226 67q-82 68 -82 215h156zM334 -157h352v-242h-352v242z" />
    <glyph glyph-name="egrave" unicode="&#xe8;" 
d="M80 963q0 149 84 246q111 129 348 129q228 0 348 -129q84 -97 84 -246v-361h-512v-280q0 -51 9 -70q16 -37 71 -37q49 0 70 35q10 27 10 72v164h352v-140q0 -145 -84 -243q-110 -129 -348 -129q-227 0 -348 129q-84 96 -84 243v617zM586 1731l90 -279h-190l-224 279h324z
M432 844h160v143q0 52 -8 70q-21 39 -72 39q-47 0 -65 -31q-15 -33 -15 -78v-143z" />
    <glyph glyph-name="eacute" unicode="&#xe9;" 
d="M80 963q0 149 84 246q111 129 348 129q228 0 348 -129q84 -97 84 -246v-361h-512v-280q0 -51 9 -70q16 -37 71 -37q49 0 70 35q10 27 10 72v164h352v-140q0 -145 -84 -243q-110 -129 -348 -129q-227 0 -348 129q-84 96 -84 243v617zM473 1688h318l-217 -279h-197z
M432 844h160v143q0 52 -8 70q-21 39 -72 39q-47 0 -65 -31q-15 -33 -15 -78v-143z" />
    <glyph glyph-name="uni1EBB" unicode="&#x1ebb;" 
d="M80 963q0 149 84 246q111 129 348 129q228 0 348 -129q84 -97 84 -246v-361h-512v-280q0 -51 9 -70q16 -37 71 -37q49 0 70 35q10 27 10 72v164h352v-140q0 -145 -84 -243q-110 -129 -348 -129q-227 0 -348 129q-84 96 -84 243v617zM432 844h160v143q0 52 -8 70
q-21 39 -72 39q-47 0 -65 -31q-15 -33 -15 -78v-143zM469 1417v41q0 43 94 144q21 20 33.5 44.5t12.5 49.5q0 33 -11 45q-6 12 -39 14q-67 0 -67 -69v-49h-139v59q0 68 51 121q59 59 161 59q89 0 144 -43t55 -129q0 -78 -84 -147q-86 -70 -86 -140h-125z" />
    <glyph glyph-name="uni1EBD" unicode="&#x1ebd;" 
d="M80 963q0 149 84 246q111 129 348 129q228 0 348 -129q84 -97 84 -246v-361h-512v-280q0 -51 9 -70q16 -37 71 -37q49 0 70 35q10 27 10 72v164h352v-140q0 -145 -84 -243q-110 -129 -348 -129q-227 0 -348 129q-84 96 -84 243v617zM432 844h160v143q0 52 -8 70
q-21 39 -72 39q-47 0 -65 -31q-15 -33 -15 -78v-143zM867 1646q-41 -101 -84 -144q-60 -61 -150 -61q-53 0 -127 35q-74 32 -108 32q-23 0 -60 -24q-4 -4 -16 -19q-13 -16 -25 -30l-98 37q14 38 24 61q21 45 48 74q57 69 131 69q55 0 137 -30q80 -33 119 -39q39 0 67.5 22.5
t42.5 59.5z" />
    <glyph glyph-name="uni1EB9" unicode="&#x1eb9;" 
d="M80 963q0 149 84 246q111 129 348 129q228 0 348 -129q84 -97 84 -246v-361h-512v-280q0 -51 9 -70q16 -37 71 -37q49 0 70 35q10 27 10 72v164h352v-140q0 -145 -84 -243q-110 -129 -348 -129q-227 0 -348 129q-84 96 -84 243v617zM432 844h160v143q0 52 -8 70
q-21 39 -72 39q-47 0 -65 -31q-15 -33 -15 -78v-143zM334 -157h352v-242h-352v242z" />
    <glyph glyph-name="ecircumflex" unicode="&#xea;" 
d="M80 963q0 149 84 246q111 129 348 129q228 0 348 -129q84 -97 84 -246v-361h-512v-280q0 -51 9 -70q16 -37 71 -37q49 0 70 35q10 27 10 72v164h352v-140q0 -145 -84 -243q-110 -129 -348 -129q-227 0 -348 129q-84 96 -84 243v617zM209 1409l170 279h289l147 -279h-213
l-90 156l-102 -156h-201zM432 844h160v143q0 52 -8 70q-21 39 -72 39q-47 0 -65 -31q-15 -33 -15 -78v-143z" />
    <glyph glyph-name="uni1EC1" unicode="&#x1ec1;" 
d="M80 963q0 149 84 246q111 129 348 129q228 0 348 -129q84 -97 84 -246v-361h-512v-280q0 -51 9 -70q16 -37 71 -37q49 0 70 35q10 27 10 72v164h352v-140q0 -145 -84 -243q-110 -129 -348 -129q-227 0 -348 129q-84 96 -84 243v617zM209 1409l170 279h289l147 -279h-213
l-90 156l-102 -156h-201zM432 844h160v143q0 52 -8 70q-21 39 -72 39q-47 0 -65 -31q-15 -33 -15 -78v-143zM873 1954l114 -349h-190l-254 349h330z" />
    <glyph glyph-name="uni1EBF" unicode="&#x1ebf;" 
d="M80 963q0 149 84 246q111 129 348 129q228 0 348 -129q84 -97 84 -246v-361h-512v-280q0 -51 9 -70q16 -37 71 -37q49 0 70 35q10 27 10 72v164h352v-140q0 -145 -84 -243q-110 -129 -348 -129q-227 0 -348 129q-84 96 -84 243v617zM209 1409l170 279h289l147 -279h-213
l-90 156l-102 -156h-201zM432 844h160v143q0 52 -8 70q-21 39 -72 39q-47 0 -65 -31q-15 -33 -15 -78v-143zM1201 1973l-254 -349h-190l114 349h330z" />
    <glyph glyph-name="uni1EC3" unicode="&#x1ec3;" 
d="M80 963q0 149 84 246q111 129 348 129q228 0 348 -129q84 -97 84 -246v-361h-512v-280q0 -51 9 -70q16 -37 71 -37q49 0 70 35q10 27 10 72v164h352v-140q0 -145 -84 -243q-110 -129 -348 -129q-227 0 -348 129q-84 96 -84 243v617zM209 1409l170 279h289l147 -279h-213
l-90 156l-102 -156h-201zM432 844h160v143q0 52 -8 70q-21 39 -72 39q-47 0 -65 -31q-15 -33 -15 -78v-143zM758 1604v41q0 43 94 143q21 21 33 45q12 25 12 49q0 33 -10 46q-6 12 -39 14q-68 0 -68 -70v-49h-139v59q0 68 51 121q60 60 162 60q88 0 143.5 -43t55.5 -129
q0 -78 -84 -148q-86 -69 -86 -139h-125z" />
    <glyph glyph-name="uni1EC5" unicode="&#x1ec5;" 
d="M80 963q0 149 84 246q111 129 348 129q228 0 348 -129q84 -97 84 -246v-361h-512v-280q0 -51 9 -70q16 -37 71 -37q49 0 70 35q10 27 10 72v164h352v-140q0 -145 -84 -243q-110 -129 -348 -129q-227 0 -348 129q-84 96 -84 243v617zM209 1409l170 279h289l147 -279h-213
l-90 156l-102 -156h-201zM432 844h160v143q0 52 -8 70q-21 39 -72 39q-47 0 -65 -31q-15 -33 -15 -78v-143zM896 1937q-41 -101 -84 -144q-60 -61 -150 -61q-53 0 -127 35q-74 32 -108 32q-23 0 -60 -24q-4 -4 -16 -19q-13 -16 -25 -30l-98 37q14 38 24 61q21 45 48 74
q57 69 131 69q55 0 137 -30q80 -33 119 -39q39 0 67.5 22.5t42.5 59.5z" />
    <glyph glyph-name="uni1EC7" unicode="&#x1ec7;" 
d="M80 963q0 149 84 246q111 129 348 129q228 0 348 -129q84 -97 84 -246v-361h-512v-280q0 -51 9 -70q16 -37 71 -37q49 0 70 35q10 27 10 72v164h352v-140q0 -145 -84 -243q-110 -129 -348 -129q-227 0 -348 129q-84 96 -84 243v617zM209 1409l170 279h289l147 -279h-213
l-90 156l-102 -156h-201zM432 844h160v143q0 52 -8 70q-21 39 -72 39q-47 0 -65 -31q-15 -33 -15 -78v-143zM334 -157h352v-242h-352v242z" />
    <glyph glyph-name="igrave" unicode="&#xec;" horiz-adv-x="569" 
d="M109 0v1311h352v-1311h-352zM330 1688l90 -279h-190l-224 279h324z" />
    <glyph glyph-name="iacute" unicode="&#xed;" horiz-adv-x="569" 
d="M108 0v1311h353v-1311h-353zM246 1688h317l-217 -279h-197z" />
    <glyph glyph-name="uni1EC9" unicode="&#x1ec9;" horiz-adv-x="569" 
d="M108 1311h353v-1311h-353v1311zM223 1417v41q0 43 94 144q21 20 33 45q12 24 12 49q0 33 -10 45q-6 12 -39 14q-67 0 -67 -69v-49h-140v59q0 68 51 121q60 59 162 59q88 0 143.5 -43t55.5 -129q0 -78 -84 -147q-86 -70 -86 -140h-125z" />
    <glyph glyph-name="itilde" unicode="&#x129;" horiz-adv-x="569" 
d="M109 1311h352v-1311h-352v1311zM625 1636q-41 -101 -84 -144q-60 -61 -150 -61q-53 0 -127 35q-74 32 -108 32q-23 0 -60 -24q-4 -4 -16 -19q-13 -16 -25 -30l-98 37q14 38 24 61q21 45 48 74q57 69 131 69q55 0 137 -30q80 -33 119 -39q39 0 67.5 22.5t42.5 59.5z" />
    <glyph glyph-name="uni1ECB" unicode="&#x1ecb;" horiz-adv-x="569" 
d="M108 1311h353v-1311h-353v1311zM108 1639h353v-242h-353v242zM108 -157h353v-242h-353v242z" />
    <glyph glyph-name="ograve" unicode="&#xf2;" 
d="M80 963q0 149 84 246q111 129 348 129q228 0 348 -129q84 -97 84 -246v-617q0 -145 -84 -243q-110 -129 -348 -129q-227 0 -348 129q-84 96 -84 243v617zM557 1688l90 -279h-190l-223 279h323zM432 322q0 -51 9 -70q16 -37 71 -37q49 0 70 35q10 27 10 72v665q0 52 -8 70
q-21 39 -72 39q-47 0 -65 -31q-15 -33 -15 -78v-665z" />
    <glyph glyph-name="oacute" unicode="&#xf3;" 
d="M80 963q0 149 84 246q111 129 348 129q228 0 348 -129q84 -97 84 -246v-617q0 -145 -84 -243q-110 -129 -348 -129q-227 0 -348 129q-84 96 -84 243v617zM473 1688h318l-217 -279h-197zM432 322q0 -51 9 -70q16 -37 71 -37q49 0 70 35q10 27 10 72v665q0 52 -8 70
q-21 39 -72 39q-47 0 -65 -31q-15 -33 -15 -78v-665z" />
    <glyph glyph-name="uni1ECF" unicode="&#x1ecf;" 
d="M80 963q0 149 84 246q111 129 348 129q228 0 348 -129q84 -97 84 -246v-617q0 -145 -84 -243q-110 -129 -348 -129q-227 0 -348 129q-84 96 -84 243v617zM432 322q0 -51 9 -70q16 -37 71 -37q49 0 70 35q10 27 10 72v665q0 52 -8 70q-21 39 -72 39q-47 0 -65 -31
q-15 -33 -15 -78v-665zM453 1417v41q0 43 94 144q21 20 33 45q12 24 12 49q0 33 -10 45q-6 12 -39 14q-68 0 -68 -69v-49h-139v59q0 68 51 121q60 59 162 59q88 0 143 -43q56 -43 56 -129q0 -78 -84 -147q-86 -70 -86 -140h-125z" />
    <glyph glyph-name="otilde" unicode="&#xf5;" 
d="M80 963q0 149 84 246q111 129 348 129q228 0 348 -129q84 -97 84 -246v-617q0 -145 -84 -243q-110 -129 -348 -129q-227 0 -348 129q-84 96 -84 243v617zM432 322q0 -51 9 -70q16 -37 71 -37q49 0 70 35q10 27 10 72v665q0 52 -8 70q-21 39 -72 39q-47 0 -65 -31
q-15 -33 -15 -78v-665zM846 1636q-41 -101 -84 -144q-60 -61 -150 -61q-53 0 -127 35q-74 32 -108 32q-23 0 -60 -24q-4 -4 -16 -19q-13 -16 -25 -30l-98 37q14 38 24 61q21 45 48 74q57 69 131 69q55 0 137 -30q80 -33 119 -39q39 0 67.5 22.5t42.5 59.5z" />
    <glyph glyph-name="uni1ECD" unicode="&#x1ecd;" 
d="M80 963q0 149 84 246q111 129 348 129q228 0 348 -129q84 -97 84 -246v-617q0 -145 -84 -243q-110 -129 -348 -129q-227 0 -348 129q-84 96 -84 243v617zM432 322q0 -51 9 -70q16 -37 71 -37q49 0 70 35q10 27 10 72v665q0 52 -8 70q-21 39 -72 39q-47 0 -65 -31
q-15 -33 -15 -78v-665zM334 -157h352v-242h-352v242z" />
    <glyph glyph-name="ocircumflex" unicode="&#xf4;" 
d="M80 963q0 149 84 246q111 129 348 129q228 0 348 -129q84 -97 84 -246v-617q0 -145 -84 -243q-110 -129 -348 -129q-227 0 -348 129q-84 96 -84 243v617zM209 1409l170 279h289l147 -279h-213l-90 156l-102 -156h-201zM432 322q0 -51 9 -70q16 -37 71 -37q49 0 70 35
q10 27 10 72v665q0 52 -8 70q-21 39 -72 39q-47 0 -65 -31q-15 -33 -15 -78v-665z" />
    <glyph glyph-name="uni1ED3" unicode="&#x1ed3;" 
d="M80 963q0 149 84 246q111 129 348 129q228 0 348 -129q84 -97 84 -246v-617q0 -145 -84 -243q-110 -129 -348 -129q-227 0 -348 129q-84 96 -84 243v617zM209 1409l170 279h289l147 -279h-213l-90 156l-102 -156h-201zM432 322q0 -51 9 -70q16 -37 71 -37q49 0 70 35
q10 27 10 72v665q0 52 -8 70q-21 39 -72 39q-47 0 -65 -31q-15 -33 -15 -78v-665zM883 1909l90 -279h-190l-223 279h323z" />
    <glyph glyph-name="uni1ED1" unicode="&#x1ed1;" 
d="M80 963q0 149 84 246q111 129 348 129q228 0 348 -129q84 -97 84 -246v-617q0 -145 -84 -243q-110 -129 -348 -129q-227 0 -348 129q-84 96 -84 243v617zM209 1409l170 279h289l147 -279h-213l-90 156l-102 -156h-201zM432 322q0 -51 9 -70q16 -37 71 -37q49 0 70 35
q10 27 10 72v665q0 52 -8 70q-21 39 -72 39q-47 0 -65 -31q-15 -33 -15 -78v-665zM853 1923h319l-219 -278h-197z" />
    <glyph glyph-name="uni1ED5" unicode="&#x1ed5;" 
d="M80 963q0 149 84 246q111 129 348 129q228 0 348 -129q84 -97 84 -246v-617q0 -145 -84 -243q-110 -129 -348 -129q-227 0 -348 129q-84 96 -84 243v617zM209 1409l170 279h289l147 -279h-213l-90 156l-102 -156h-201zM432 322q0 -51 9 -70q16 -37 71 -37q49 0 70 35
q10 27 10 72v665q0 52 -8 70q-21 39 -72 39q-47 0 -65 -31q-15 -33 -15 -78v-665zM797 1581v41q0 43 94 144q21 20 33 45q12 24 12 49q0 33 -10 45q-6 12 -39 14q-68 0 -68 -69v-50h-139v60q0 67 51 121q60 59 162 59q88 0 143.5 -43t55.5 -129q0 -78 -84 -147
q-86 -70 -86 -140h-125z" />
    <glyph glyph-name="uni1ED7" unicode="&#x1ed7;" 
d="M80 963q0 149 84 246q111 129 348 129q228 0 348 -129q84 -97 84 -246v-617q0 -145 -84 -243q-110 -129 -348 -129q-227 0 -348 129q-84 96 -84 243v617zM209 1409l170 279h289l147 -279h-213l-90 156l-102 -156h-201zM432 322q0 -51 9 -70q16 -37 71 -37q49 0 70 35
q10 27 10 72v665q0 52 -8 70q-21 39 -72 39q-47 0 -65 -31q-15 -33 -15 -78v-665zM924 1937q-41 -101 -84 -144q-60 -61 -150 -61q-53 0 -127 35q-74 32 -108 32q-23 0 -60 -24q-4 -4 -16 -19q-13 -16 -25 -30l-98 37q14 38 24 61q21 45 48 74q57 69 131 69q55 0 137 -30
q80 -33 119 -39q39 0 67.5 22.5t42.5 59.5z" />
    <glyph glyph-name="uni1ED9" unicode="&#x1ed9;" 
d="M80 963q0 149 84 246q111 129 348 129q228 0 348 -129q84 -97 84 -246v-617q0 -145 -84 -243q-110 -129 -348 -129q-227 0 -348 129q-84 96 -84 243v617zM209 1409l170 279h289l147 -279h-213l-90 156l-102 -156h-201zM432 322q0 -51 9 -70q16 -37 71 -37q49 0 70 35
q10 27 10 72v665q0 52 -8 70q-21 39 -72 39q-47 0 -65 -31q-15 -33 -15 -78v-665zM334 -157h352v-242h-352v242z" />
    <glyph glyph-name="glyph216" unicode="&#xf9;" 
d="M944 0h-340v146q-53 -86 -114 -131q-64 -41 -158 -41q-123 0 -186 79q-66 80 -66 201v1057h352v-897q0 -64 9 -80q18 -45 71 -45q49 0 70 51q10 35 10 74v897h352v-1311zM557 1688l90 -279h-190l-223 279h323z" />
    <glyph glyph-name="glyph217" unicode="&#xfa;" 
d="M944 0h-340v146q-53 -86 -114 -131q-64 -41 -158 -41q-123 0 -186 79q-66 80 -66 201v1057h352v-897q0 -64 9 -80q18 -45 71 -45q49 0 70 51q10 35 10 74v897h352v-1311zM473 1688h318l-217 -279h-197z" />
    <glyph glyph-name="uni1EE7" unicode="&#x1ee7;" 
d="M944 0h-340v146q-53 -86 -114 -131q-64 -41 -158 -41q-123 0 -186 79q-66 80 -66 201v1057h352v-897q0 -64 9 -80q18 -45 71 -45q49 0 70 51q10 35 10 74v897h352v-1311zM469 1417v41q0 43 94 144q21 20 33.5 44.5t12.5 49.5q0 33 -11 45q-6 12 -39 14q-67 0 -67 -69v-49
h-139v59q0 68 51 121q59 59 161 59q89 0 144 -43t55 -129q0 -78 -84 -147q-86 -70 -86 -140h-125z" />
    <glyph glyph-name="utilde" unicode="&#x169;" 
d="M944 0h-340v146q-53 -86 -114 -131q-64 -41 -158 -41q-123 0 -186 79q-66 80 -66 201v1057h352v-897q0 -64 9 -80q18 -45 71 -45q49 0 70 51q10 35 10 74v897h352v-1311zM867 1637q-41 -101 -84 -144q-60 -61 -150 -61q-53 0 -127 35q-74 32 -108 32q-23 0 -60 -24
q-4 -4 -16 -19q-13 -16 -25 -30l-98 37q14 38 24 61q21 45 48 74q57 69 131 69q55 0 137 -30q80 -33 119 -39q39 0 67.5 22.5t42.5 59.5z" />
    <glyph glyph-name="uni1EE5" unicode="&#x1ee5;" 
d="M944 0h-340v146q-53 -86 -114 -131q-64 -41 -158 -41q-123 0 -186 79q-66 80 -66 201v1057h352v-897q0 -64 9 -80q18 -45 71 -45q49 0 70 51q10 35 10 74v897h352v-1311zM334 -157h352v-242h-352v242z" />
    <glyph glyph-name="uhorn" unicode="&#x1b0;" 
d="M944 1196v-1196h-340v146q-53 -86 -114 -131q-64 -41 -158 -41q-123 0 -186 79q-66 80 -66 201v1057h352v-897q0 -64 9 -80q18 -45 71 -45q49 0 70 51q10 35 10 74v897h332v4q0 10 4 14v7q0 6 2 10h-37v157h180v-135v-26q0 -37 -12 -52q-8 -16 -20 -28q-15 -15 -33 -29
q-25 -10 -43 -18q-21 -11 -21 -19z" />
    <glyph glyph-name="uni1EEB" unicode="&#x1eeb;" 
d="M944 1196v-1196h-340v146q-53 -86 -114 -131q-64 -41 -158 -41q-123 0 -186 79q-66 80 -66 201v1057h352v-897q0 -64 9 -80q18 -45 71 -45q49 0 70 51q10 35 10 74v897h332v4q0 10 4 14v7q0 6 2 10h-37v157h180v-135v-26q0 -37 -12 -52q-8 -16 -20 -28q-15 -15 -33 -29
q-25 -10 -43 -18q-21 -11 -21 -19zM557 1688l90 -279h-190l-223 279h323z" />
    <glyph glyph-name="uni1EE9" unicode="&#x1ee9;" 
d="M944 1196v-1196h-340v146q-53 -86 -114 -131q-64 -41 -158 -41q-123 0 -186 79q-66 80 -66 201v1057h352v-897q0 -64 9 -80q18 -45 71 -45q49 0 70 51q10 35 10 74v897h332v4q0 10 4 14v7q0 6 2 10h-37v157h180v-135v-26q0 -37 -12 -52q-8 -16 -20 -28q-15 -15 -33 -29
q-25 -10 -43 -18q-21 -11 -21 -19zM473 1688h318l-217 -279h-197z" />
    <glyph glyph-name="uni1EED" unicode="&#x1eed;" 
d="M453 1417v41q0 43 94 144q21 20 33 45q12 24 12 49q0 33 -10 45q-6 12 -39 14q-68 0 -68 -69v-49h-139v59q0 68 51 121q60 59 162 59q88 0 143 -43q56 -43 56 -129q0 -78 -84 -147q-86 -70 -86 -140h-125zM944 1196v-1196h-340v146q-53 -86 -114 -131q-64 -41 -158 -41
q-123 0 -186 79q-66 80 -66 201v1057h352v-897q0 -64 9 -80q18 -45 71 -45q49 0 70 51q10 35 10 74v897h332v4q0 10 4 14v7q0 6 2 10h-37v157h180v-135v-26q0 -37 -12 -52q-8 -16 -20 -28q-15 -15 -33 -29q-25 -10 -43 -18q-21 -11 -21 -19z" />
    <glyph glyph-name="uni1EEF" unicode="&#x1eef;" 
d="M944 1196v-1196h-340v146q-53 -86 -114 -131q-64 -41 -158 -41q-123 0 -186 79q-66 80 -66 201v1057h352v-897q0 -64 9 -80q18 -45 71 -45q49 0 70 51q10 35 10 74v897h332v4q0 10 4 14v7q0 6 2 10h-37v157h180v-135v-26q0 -37 -12 -52q-8 -16 -20 -28q-15 -15 -33 -29
q-25 -10 -43 -18q-21 -11 -21 -19zM867 1637q-41 -101 -84 -144q-60 -61 -150 -61q-53 0 -127 35q-74 32 -108 32q-23 0 -60 -24q-4 -4 -16 -19q-13 -16 -25 -30l-98 37q14 38 24 61q21 45 48 74q57 69 131 69q55 0 137 -30q80 -33 119 -39q39 0 67.5 22.5t42.5 59.5z" />
    <glyph glyph-name="uni1EF1" unicode="&#x1ef1;" 
d="M334 -157h352v-242h-352v242zM944 1196v-1196h-340v146q-53 -86 -114 -131q-64 -41 -158 -41q-123 0 -186 79q-66 80 -66 201v1057h352v-897q0 -64 9 -80q18 -45 71 -45q49 0 70 51q10 35 10 74v897h332v4q0 10 4 14v7q0 6 2 10h-37v157h180v-135v-26q0 -37 -12 -52
q-8 -16 -20 -28q-15 -15 -33 -29q-25 -10 -43 -18q-21 -11 -21 -19z" />
    <glyph glyph-name="ohorn" unicode="&#x1a1;" 
d="M432 322q0 -51 9 -70q16 -37 71 -37q49 0 70 35q10 27 10 72v665q0 52 -8 70q-21 39 -72 39q-47 0 -65 -31q-15 -33 -15 -78v-665zM865 1290l-35 5v157h190v-135q0 -47 -20 -63l-56 -45l-67 -37q16 -11 24 -17l4 -12q0 -8 11 -27q28 -75 28 -153v-617q0 -145 -84 -243
q-110 -129 -348 -129q-227 0 -348 129q-84 96 -84 243v617q0 149 84 246q111 129 348 129q103 0 166 -21q31 -6 88 -47l41 -29q19 9 31 15q27 14 27 34z" />
    <glyph glyph-name="uni1EDD" unicode="&#x1edd;" 
d="M557 1688l90 -279h-190l-223 279h323zM432 322q0 -51 9 -70q16 -37 71 -37q49 0 70 35q10 27 10 72v665q0 52 -8 70q-21 39 -72 39q-47 0 -65 -31q-15 -33 -15 -78v-665zM865 1290l-35 5v157h190v-135q0 -47 -20 -63l-56 -45l-67 -37q16 -11 24 -17l4 -12q0 -8 11 -27
q28 -75 28 -153v-617q0 -145 -84 -243q-110 -129 -348 -129q-227 0 -348 129q-84 96 -84 243v617q0 149 84 246q111 129 348 129q103 0 166 -21q31 -6 88 -47l41 -29q19 9 31 15q27 14 27 34z" />
    <glyph glyph-name="uni1EDB" unicode="&#x1edb;" 
d="M473 1688h318l-217 -279h-197zM432 322q0 -51 9 -70q16 -37 71 -37q49 0 70 35q10 27 10 72v665q0 52 -8 70q-21 39 -72 39q-47 0 -65 -31q-15 -33 -15 -78v-665zM865 1290l-35 5v157h190v-135q0 -47 -20 -63l-56 -45l-67 -37q16 -11 24 -17l4 -12q0 -8 11 -27
q28 -75 28 -153v-617q0 -145 -84 -243q-110 -129 -348 -129q-227 0 -348 129q-84 96 -84 243v617q0 149 84 246q111 129 348 129q103 0 166 -21q31 -6 88 -47l41 -29q19 9 31 15q27 14 27 34z" />
    <glyph glyph-name="uni1EDF" unicode="&#x1edf;" 
d="M453 1417v41q0 43 94 144q21 20 33 45q12 24 12 49q0 33 -10 45q-6 12 -39 14q-68 0 -68 -69v-49h-139v59q0 68 51 121q60 59 162 59q88 0 143 -43q56 -43 56 -129q0 -78 -84 -147q-86 -70 -86 -140h-125zM432 322q0 -51 9 -70q16 -37 71 -37q49 0 70 35q10 27 10 72v665
q0 52 -8 70q-21 39 -72 39q-47 0 -65 -31q-15 -33 -15 -78v-665zM865 1290l-35 5v157h190v-135q0 -47 -20 -63l-56 -45l-67 -37q16 -11 24 -17l4 -12q0 -8 11 -27q28 -75 28 -153v-617q0 -145 -84 -243q-110 -129 -348 -129q-227 0 -348 129q-84 96 -84 243v617
q0 149 84 246q111 129 348 129q103 0 166 -21q31 -6 88 -47l41 -29q19 9 31 15q27 14 27 34z" />
    <glyph glyph-name="uni1EE1" unicode="&#x1ee1;" 
d="M846 1636q-41 -101 -84 -144q-60 -61 -150 -61q-53 0 -127 35q-74 32 -108 32q-23 0 -60 -24q-4 -4 -16 -19q-13 -16 -25 -30l-98 37q14 38 24 61q21 45 48 74q57 69 131 69q55 0 137 -30q80 -33 119 -39q39 0 67.5 22.5t42.5 59.5zM432 322q0 -51 9 -70q16 -37 71 -37
q49 0 70 35q10 27 10 72v665q0 52 -8 70q-21 39 -72 39q-47 0 -65 -31q-15 -33 -15 -78v-665zM865 1290l-35 5v157h190v-135q0 -47 -20 -63l-56 -45l-67 -37q16 -11 24 -17l4 -12q0 -8 11 -27q28 -75 28 -153v-617q0 -145 -84 -243q-110 -129 -348 -129q-227 0 -348 129
q-84 96 -84 243v617q0 149 84 246q111 129 348 129q103 0 166 -21q31 -6 88 -47l41 -29q19 9 31 15q27 14 27 34z" />
    <glyph glyph-name="uni1EE3" unicode="&#x1ee3;" 
d="M334 -157h352v-242h-352v242zM432 322q0 -51 9 -70q16 -37 71 -37q49 0 70 35q10 27 10 72v665q0 52 -8 70q-21 39 -72 39q-47 0 -65 -31q-15 -33 -15 -78v-665zM865 1290l-35 5v157h190v-135q0 -47 -20 -63l-56 -45l-67 -37q16 -11 24 -17l4 -12q0 -8 11 -27
q28 -75 28 -153v-617q0 -145 -84 -243q-110 -129 -348 -129q-227 0 -348 129q-84 96 -84 243v617q0 149 84 246q111 129 348 129q103 0 166 -21q31 -6 88 -47l41 -29q19 9 31 15q27 14 27 34z" />
    <glyph glyph-name="ygrave" unicode="&#x1ef3;" horiz-adv-x="909" 
d="M109 17h80q32 0 43 8q10 8 16 39l-6 55q0 35 -4 43l-12 49l-216 1100h361l88 -922l94 922h346l-229 -1200l-12 -66q-6 -39 -17 -57q-24 -88 -80 -143q-43 -43 -112 -62q-31 -8 -76 -14q-47 -6 -100 -6h-164v254zM496 1688l90 -279h-190l-224 279h324z" />
    <glyph glyph-name="glyph234" unicode="&#xfd;" horiz-adv-x="909" 
d="M109 17h80q32 0 43 8q10 8 16 39l-6 55q0 35 -4 43l-12 49l-216 1100h361l88 -922l94 922h346l-229 -1200l-12 -66q-6 -39 -17 -57q-24 -88 -80 -143q-43 -43 -112 -62q-31 -8 -76 -14q-47 -6 -100 -6h-164v254zM416 1688h317l-217 -279h-196z" />
    <glyph glyph-name="uni1EF7" unicode="&#x1ef7;" horiz-adv-x="909" 
d="M109 17h80q32 0 43 8q10 8 16 39l-6 55q0 35 -4 43l-12 49l-216 1100h361l88 -922l94 922h346l-229 -1200l-12 -66q-6 -39 -17 -57q-24 -88 -80 -143q-43 -43 -112 -62q-31 -8 -76 -14q-47 -6 -100 -6h-164v254zM420 1401v41q0 43 94 143q21 21 33 45q12 25 12 50
q0 32 -10 45q-6 12 -39 14q-67 0 -67 -70v-49h-140v60q0 67 52 120q59 60 161 60q88 0 143.5 -43t55.5 -129q0 -78 -84 -148q-86 -69 -86 -139h-125z" />
    <glyph glyph-name="uni1EF9" unicode="&#x1ef9;" horiz-adv-x="909" 
d="M109 17h80q32 0 43 8q10 8 16 39l-6 55q0 35 -4 43l-12 49l-216 1100h361l88 -922l94 922h346l-229 -1200l-12 -66q-6 -39 -17 -57q-24 -88 -80 -143q-43 -43 -112 -62q-31 -8 -76 -14q-47 -6 -100 -6h-164v254zM829 1637q-41 -101 -84 -144q-60 -61 -150 -61
q-53 0 -127 35q-74 32 -108 32q-23 0 -60 -24q-4 -4 -16 -19q-13 -16 -25 -30l-98 37q14 38 24 61q21 45 48 74q57 69 131 69q55 0 137 -30q80 -33 119 -39q39 0 67.5 22.5t42.5 59.5z" />
    <glyph glyph-name="uni1EF5" unicode="&#x1ef5;" horiz-adv-x="909" 
d="M109 17h80q32 0 43 8q10 8 16 39l-6 55q0 35 -4 43l-12 49l-216 1100h361l88 -922l94 922h346l-229 -1200l-12 -66q-6 -39 -17 -57q-24 -88 -80 -143q-43 -43 -112 -62q-31 -8 -76 -14q-47 -6 -100 -6h-164v254zM269 -305h352v-242h-352v242z" />
    <glyph glyph-name="divide" unicode="&#xf7;" horiz-adv-x="1706" 
 />
    <glyph glyph-name="ugrave" horiz-adv-x="582" 
 />
    <glyph glyph-name="uacute" horiz-adv-x="580" 
 />
    <glyph glyph-name="yacute" horiz-adv-x="629" 
 />
    <glyph glyph-name="Ccaron" unicode="&#x10c;" horiz-adv-x="1274" 
 />
    <glyph glyph-name="ccaron" unicode="&#x10d;" horiz-adv-x="922" 
 />
    <glyph glyph-name="Dslash" unicode="&#x110;" horiz-adv-x="1138" 
d="M84 750h-78v254h78v635h561q226 0 326 -125q86 -105 86 -314v-780q0 -209 -131 -321q-115 -99 -281 -99h-561v750zM461 1004h115v-254h-115v-471h68q67 0 108 35q41 32 41 86v821q0 139 -158 139h-59v-356z" />
    <glyph glyph-name="dcroat" unicode="&#x111;" 
d="M592 903q0 76 -16 115q-23 53 -74 53q-29 0 -49.5 -20.5t-20.5 -61.5v-663q0 -41 19 -66q18 -16 51 -20q61 0 84 104q6 43 6 109v450zM592 1544v95h352v-95h82l2 -98h-82l-2 -1446h-352v131q-74 -157 -250 -157q-123 0 -192 106q-70 105 -70 285v639q0 334 256 334
q174 0 252 -146l2 250h-250l-2 102h254z" />
    <glyph glyph-name="quoteleft" unicode="&#x2018;" horiz-adv-x="591" 
d="M446 1884v-377h-340v352q0 68 53 158q55 92 96 100h191q-54 -45 -103 -108q-37 -45 -65 -125h168z" />
    <glyph glyph-name="quoteright" unicode="&#x2019;" horiz-adv-x="523" 
d="M106 1740v377h340v-352q0 -68 -53 -158q-55 -92 -96 -100h-191q54 45 103 108q37 45 65 125h-168z" />
    <glyph glyph-name="quotedblleft" unicode="&#x201c;" horiz-adv-x="966" 
d="M882 1884v-377h-340v352q0 68 53 158q55 92 96 100h191q-54 -45 -103 -108q-37 -45 -65 -125h168zM446 1884v-377h-340v352q0 68 53 158q55 92 96 100h191q-54 -45 -103 -108q-37 -45 -65 -125h168z" />
    <glyph glyph-name="quotedblright" unicode="&#x201d;" horiz-adv-x="966" 
d="M106 1740v377h340v-352q0 -68 -53 -158q-55 -92 -96 -100h-191q54 45 103 108q37 45 65 125h-168zM542 1740v377h340v-352q0 -68 -53 -158q-55 -92 -96 -100h-191q54 45 103 108q37 45 65 125h-168z" />
    <glyph glyph-name="ellipsis" unicode="&#x2026;" horiz-adv-x="1550" 
d="M426 0h-340v377h340v-377zM930 0h-340v377h340v-377zM1434 0h-340v377h340v-377z" />
    </font>
</defs>
</svg>
